<?xml version="1.0" standalone="no"?>
<!DOCTYPE svg PUBLIC "-//W3C//DTD SVG 1.1//EN" "http://www.w3.org/Graphics/SVG/1.1/DTD/svg11.dtd" >
<svg xmlns="http://www.w3.org/2000/svg" xmlns:xlink="http://www.w3.org/1999/xlink" version="1.1">
<metadata></metadata>
<defs>
<font id="cormorant_unicasesemibold" horiz-adv-x="1167" >
<font-face units-per-em="2048" ascent="1485" descent="-563" />
<missing-glyph horiz-adv-x="479" />
<glyph horiz-adv-x="0" />
<glyph horiz-adv-x="682" />
<glyph unicode=" "  horiz-adv-x="479" />
<glyph unicode="&#x09;" horiz-adv-x="479" />
<glyph unicode="&#xa0;" horiz-adv-x="479" />
<glyph unicode="!" horiz-adv-x="528" d="M135 1264q-1 7 20.5 13t50.5 8.5t56 2.5q47 0 89.5 -6.5t39.5 -17.5q-31 -121 -53 -293.5t-30 -283t-19 -300.5q0 -9 -29 -9t-29 9q-9 182 -17 298.5t-29 287t-50 291.5zM258 -23q-52 0 -82.5 30.5t-30.5 82.5q0 50 30.5 78.5t82.5 28.5t81.5 -28.5t29.5 -78.5 q0 -53 -29.5 -83t-81.5 -30z" />
<glyph unicode="&#x22;" horiz-adv-x="606" d="M117 748l-49 495q-2 26 75 51q77 24 112 15q13 -4 11 -13l-121 -546q-2 -3 -9 -5t-13 -1.5t-6 4.5zM422 748l-49 495q-2 26 75 51q77 24 112 15q13 -4 11 -13l-120 -546q-2 -3 -9 -5t-13.5 -1.5t-6.5 4.5z" />
<glyph unicode="#" horiz-adv-x="1077" d="M948 653q9 0 9 -47t-9 -47h-135l-55 -313h119q9 0 9 -46t-9 -46h-136l-57 -322q-4 -5 -25.5 -4t-46 7t-22.5 11l53 308h-285l-57 -322q-4 -5 -25.5 -4t-46 7t-22.5 11l53 308h-131q-6 0 -8 23t-0.5 46t6.5 23h149l56 313h-131q-6 0 -8 23.5t-0.5 47t6.5 23.5h149l60 334 q4 5 25 3t45.5 -9t23.5 -12l-56 -316h285l60 334q4 5 25 3t45.5 -9t23.5 -12l-56 -316h119zM659 246l56 313h-285l-55 -313h284z" />
<glyph unicode="$" horiz-adv-x="856" d="M784 262q0 -111 -86.5 -191.5t-224.5 -93.5v-186q0 -13 -27.5 -13t-27.5 13v184q-83 0 -162.5 21.5t-118.5 52.5q-15 8 -18 41l-13 223q-1 9 9.5 10.5t13.5 -6.5q51 -111 124.5 -195.5t164.5 -101.5v404q-20 12 -49 27q-42 23 -63 35t-56 34.5t-53 41.5t-38.5 45t-29 56 t-8.5 64q0 108 84.5 175.5t212.5 78.5v168q0 15 27.5 15t27.5 -15v-166q125 -3 225 -47q28 -11 31 -39l4 -190q0 -6 -10.5 -9t-13.5 4q-7 23 -25 55t-46.5 70t-72 69t-92.5 42v-363q7 -4 22.5 -11t22.5 -11q41 -21 56.5 -30t51.5 -30t52 -35t41 -38t36 -45.5t20 -51t9 -61.5 zM270 799q0 -63 38.5 -108t109.5 -87v338q-73 -3 -110.5 -42t-37.5 -101zM473 16q65 5 107.5 44.5t42.5 117.5q0 68 -39.5 119t-110.5 96v-377z" />
<glyph unicode="%" horiz-adv-x="1175" d="M307 455q-115 0 -189.5 77t-74.5 189q0 109 74.5 185.5t189.5 76.5q113 0 185.5 -77.5t72.5 -188.5q0 -112 -72.5 -187t-185.5 -75zM299 -18q-2 -3 -17 5t-28 18t-10 13l651 957q3 5 18 -4t27.5 -20.5t9.5 -14.5zM322 485q56 0 74 54t18 163q0 250 -119 250 q-30 0 -50.5 -17t-31 -50t-14.5 -69.5t-4 -86.5q0 -244 127 -244zM903 -10q-114 0 -189 77t-75 189q0 109 75 185.5t189 76.5q115 0 187.5 -77.5t72.5 -188.5q0 -112 -73 -187t-187 -75zM918 20q30 0 49.5 15.5t29 47.5t12.5 67t3 88q0 249 -119 249q-59 0 -80.5 -59 t-21.5 -164q0 -244 127 -244z" />
<glyph unicode="&#x26;" horiz-adv-x="1118" d="M1112 25q6 0 6 -12.5t-6 -12.5h-260q-52 0 -152 68q-132 -93 -307 -93q-152 0 -230.5 62t-78.5 151q0 33 12 65.5t29 57t48 53.5t55.5 48.5t64.5 48.5q-49 66 -70 112q-37 80 -37 150q0 117 91.5 188.5t214.5 71.5q36 0 71 -7.5t70 -23.5t56.5 -49t21.5 -78 q0 -27 -6.5 -51.5t-24 -48t-30.5 -39t-44 -38.5t-45.5 -33t-54 -35t-51.5 -33q94 -146 260 -293q57 -46 59 -47q45 80 45 170q0 69 -34 107t-97 38q-6 0 -6.5 12.5t6.5 12.5l377 2q7 0 7 -12.5t-7 -12.5q-17 0 -31 -1.5t-24.5 -3t-20 -6.5t-15.5 -7t-12.5 -11.5t-9 -12 t-7.5 -15t-6.5 -15.5t-6.5 -19.5t-6 -20.5q-36 -126 -115 -234q94 -69 176 -109.5t125 -43.5zM348 823q0 -107 90 -252q117 105 117 222q0 67 -33.5 109t-83.5 42q-42 0 -66 -31t-24 -90zM504 43q91 0 164 47q-68 50 -127 107q-139 125 -226 235q-61 -74 -61 -164 q0 -105 71.5 -165t178.5 -60z" />
<glyph unicode="'" horiz-adv-x="301" d="M117 748l-49 495q-2 26 75 51q77 24 112 15q13 -4 11 -13l-121 -546q-2 -3 -9 -5t-13 -1.5t-6 4.5z" />
<glyph unicode="(" horiz-adv-x="632" d="M104 623q0 291 120.5 522t336.5 340q3 2 7.5 -3t0.5 -9q-266 -282 -266 -850t266 -850q4 -3 -0.5 -9t-7.5 -4q-216 111 -336.5 342t-120.5 521z" />
<glyph unicode=")" horiz-adv-x="632" d="M528 623q0 -291 -120 -522.5t-336 -340.5q-3 -2 -8 3.5t-1 9.5q267 283 267 850t-267 850q-3 2 -1.5 5t5 5.5t5.5 1.5q216 -111 336 -341.5t120 -520.5z" />
<glyph unicode="*" horiz-adv-x="917" d="M463 1083l-35 263q-3 26 96 50q87 22 110 13q5 -2 3 -6l-154 -320q-1 -6 -10.5 -6t-9.5 6zM418 1047l-262 49q-27 5 -17 114q7 88 22 103q3 2 5 0l258 -248q3 -3 2.5 -7t-3 -8t-5.5 -3zM868 983l-354 49q-6 0 -8.5 9t2.5 10l240 114q18 7 53 -39t57 -95t10 -48zM311 762 q-13 -25 -114 18q-78 33 -89 53q-1 3 1 5l313 168q4 4 12 -1.5t6 -11.5zM541 635l-66 350q-1 4 7.5 10.5t11.5 3.5l182 -194q13 -13 -20 -60.5t-73 -84.5t-42 -25z" />
<glyph unicode="+" horiz-adv-x="815" d="M864 604q9 0 9 -47t-9 -47h-508v-387q0 -6 -23.5 -8t-47 -0.5t-23.5 6.5v389h-192q-6 0 -8 23.5t-0.5 47t6.5 23.5h194v314q0 9 47 9t47 -9v-314h508z" />
<glyph unicode="," horiz-adv-x="454" d="M207 195q68 0 106.5 -53t38.5 -150q0 -90 -39.5 -166t-117.5 -152q-5 -4 -11 -1.5t-7.5 7.5t1.5 9q101 104 101 241q0 56 -21 84q-18 -30 -72 -30q-44 0 -71 28t-27 74q0 52 31.5 80.5t87.5 28.5z" />
<glyph unicode="-" horiz-adv-x="577" d="M66 408q-6 -1 -8.5 24.5t-1.5 52t5 27.5l439 72q6 1 8 -25t0 -52.5t-8 -27.5z" />
<glyph unicode="." horiz-adv-x="417" d="M211 -23q-53 0 -83 30.5t-30 82.5q0 50 30.5 78.5t82.5 28.5t81.5 -28.5t29.5 -78.5q0 -53 -29.5 -83t-81.5 -30z" />
<glyph unicode="/" horiz-adv-x="712" d="M145 -336q-4 -9 -49 4t-43 21l516 1806q6 5 27 0.5t43 -14t20 -15.5z" />
<glyph unicode="0" horiz-adv-x="1120" d="M563 -27q-215 0 -351 142t-136 368q0 221 136.5 358.5t352.5 137.5q213 0 346 -139t133 -363t-134 -364t-347 -140zM588 12q84 0 140 56t81 153t25 232q0 239 -83.5 364t-207.5 125q-122 0 -192 -122.5t-70 -321.5q0 -215 83 -350.5t224 -135.5z" />
<glyph unicode="1" horiz-adv-x="704" d="M109 0q-6 0 -6 12.5t6 12.5q105 0 137.5 26.5t32.5 114.5v557q0 95 -36 114t-134 -22q-11 -4 -17 10q-2 8 4 11l336 147q7 3 13 -3t6 -11v-803q0 -90 30.5 -115.5t139.5 -25.5q5 0 5 -12.5t-5 -12.5q-31 0 -116.5 2t-139.5 2q-53 0 -139 -2t-117 -2z" />
<glyph unicode="2" horiz-adv-x="919" d="M74 25q242 253 313 336q159 187 185 309q6 29 6 57q0 86 -49.5 146.5t-139.5 60.5q-94 0 -156.5 -70t-113.5 -202q-1 -4 -7.5 -4t-12.5 2.5t-5 5.5l86 338q2 3 8 3t11.5 -3t3.5 -7q-12 -59 30 -59q12 0 94.5 22.5t151.5 22.5q130 0 209.5 -69.5t79.5 -182.5 q0 -63 -27.5 -118.5t-81 -108t-111 -98.5t-140.5 -115.5t-146 -134.5q-6 -6 -2.5 -10.5t12.5 -4.5q103 0 167.5 0.5t127.5 3t97 5t67 9.5t48 14t29 20.5t20 27t12 35.5q2 6 12 5t10 -7l-20 -231q0 -8 -6 -15.5t-15 -7.5h-733q-9 0 -14.5 9t0.5 16z" />
<glyph unicode="3" horiz-adv-x="909" d="M479 449q146 -3 232 -82t86 -193q0 -153 -174 -286.5t-514 -209.5q-5 -1 -8.5 5t-3.5 12.5t5 7.5q111 28 198.5 69t141.5 85.5t89 97t49 100t14 97.5q0 100 -57.5 171.5t-163.5 71.5q-80 0 -117 -18q-8 -5 -14.5 3.5t0.5 14.5q59 39 174 51q74 71 102.5 129.5t28.5 131.5 q0 96 -49 158.5t-142 62.5q-104 0 -169.5 -56.5t-102.5 -185.5q-1 -4 -7 -4.5t-11.5 2t-4.5 6.5l78 311q2 3 8.5 3t12 -2t4.5 -5q-8 -33 3 -47t28 -14q15 0 93.5 24.5t149.5 24.5q124 0 211.5 -63t87.5 -164q0 -155 -258 -309z" />
<glyph unicode="4" horiz-adv-x="983" d="M901 96q5 0 6 -23.5t-1.5 -47t-8.5 -23.5l-145 6v-278q0 -22 -17 -29l-137 -70q-10 -4 -14 -1.5t-4 14.5v368q-143 4 -535 4q-9 0 -14.5 8t0.5 17l688 940q6 7 19.5 3t13.5 -13v-879q43 0 149 4zM160 84q182 0 420 4v598l-430 -588q-8 -14 10 -14z" />
<glyph unicode="5" horiz-adv-x="886" d="M178 569q600 -6 600 -342q0 -159 -149.5 -286.5t-491.5 -264.5q-8 -3 -13.5 8t1.5 15q248 120 349 240.5t101 253.5q0 152 -112 234.5t-326 82.5q-10 0 -15.5 8t-2.5 17l63 364q1 10 2.5 13.5t6.5 6t18 3.5q388 41 459 55.5t86 56.5q1 4 6.5 5t10 -1.5t3.5 -7.5l-41 -207 q-6 -25 -17 -31t-40 -6l-434 -8q-25 0 -31 -30z" />
<glyph unicode="6" horiz-adv-x="1026" d="M670 602q139 0 208.5 -75.5t69.5 -186.5q0 -159 -120.5 -263t-307.5 -104q-181 0 -300.5 146t-119.5 373q0 133 48 257.5t137.5 227.5t230 174.5t313.5 93.5q5 1 8 -3.5t3 -10t-4 -6.5q-131 -28 -235 -97.5t-167 -164.5t-96 -205t-33 -226q0 -133 33 -249.5t97 -190.5 t145 -74q161 0 161 269q0 118 -40.5 185t-118.5 67q-81 0 -154 -76q-4 -2 -9.5 0t-9.5 6.5t-1 7.5q45 61 113.5 93t148.5 32z" />
<glyph unicode="7" horiz-adv-x="974" d="M475 -211q-15 -33 -43 -49l-188 -64q-3 -2 -9.5 4.5t-5.5 10.5l562 1093q6 15 -11 15q-174 0 -272.5 -0.5t-181.5 -8t-116.5 -12t-61.5 -25.5t-33.5 -35.5t-16.5 -52.5q-1 -4 -2 -6q-3 -6 -14 -3t-10 10l82 348q2 6 18 3q6 -3 6 -5q-7 -35 10 -44.5t86 -9.5h615 q9 0 15 -9t3 -17z" />
<glyph unicode="8" horiz-adv-x="1169" d="M705 752q46 -24 72 -38.5t67 -40.5t65 -46t53 -50t44.5 -59.5t26.5 -68t11 -80.5q0 -111 -66 -202.5t-175.5 -142.5t-237.5 -51q-194 0 -317 111.5t-123 263.5q0 115 72.5 212.5t185.5 162.5q-152 102 -152 244q0 68 33 123.5t85.5 88.5t114 50.5t122.5 17.5 q74 0 137.5 -21.5t103.5 -56t62 -75.5t22 -82q0 -76 -58.5 -147.5t-147.5 -112.5zM541 1210q-58 0 -94.5 -46t-36.5 -120q0 -47 19.5 -86.5t61 -74t79 -57.5t100.5 -56q55 68 55 193q0 99 -53 173t-131 74zM625 20q99 0 162 70.5t63 181.5q0 48 -13 90t-39 76.5t-55 62 t-71.5 54.5t-77 46.5t-83.5 46t-79 44.5q-110 -107 -110 -286q0 -160 85 -273t218 -113z" />
<glyph unicode="9" horiz-adv-x="1026" d="M367 354q-135 0 -204 84t-69 201q0 152 113.5 248t292.5 96q188 0 312 -143.5t124 -366.5q0 -136 -50 -266t-142 -238.5t-235 -184.5t-316 -99q-5 -1 -8 4t-3 11t4 7q106 23 196.5 76t153.5 124.5t107.5 159t66 180t21.5 187.5q0 130 -32.5 244t-96.5 187t-145 73 q-156 0 -156 -248q0 -124 40 -198t114 -74q42 0 77.5 17t75.5 59q4 2 9.5 0t10 -7t1.5 -8q-45 -61 -113.5 -93t-148.5 -32z" />
<glyph unicode=":" horiz-adv-x="417" d="M211 672q-53 0 -83 30t-30 82q0 50 30.5 78.5t82.5 28.5t81.5 -28.5t29.5 -78.5q0 -53 -29.5 -82.5t-81.5 -29.5zM211 -23q-53 0 -83 30.5t-30 82.5q0 50 30.5 78.5t82.5 28.5t81.5 -28.5t29.5 -78.5q0 -53 -29.5 -83t-81.5 -30z" />
<glyph unicode=";" horiz-adv-x="460" d="M215 672q-53 0 -83 30t-30 82q0 50 30.5 78.5t82.5 28.5t81.5 -28.5t29.5 -78.5q0 -53 -29.5 -82.5t-81.5 -29.5zM213 195q68 0 106.5 -53t38.5 -150q0 -90 -39.5 -166t-117.5 -152q-5 -4 -11 -1.5t-7.5 7.5t1.5 9q101 104 101 241q0 56 -21 84q-18 -30 -71 -30 q-44 0 -71.5 28t-27.5 74q0 52 31.5 80.5t87.5 28.5z" />
<glyph unicode="&#x3c;" horiz-adv-x="833" d="M758 145q14 -6 13 -57q-2 -40 -13 -37l-684 303q-10 6 -10 36t10 34l684 303q7 3 11 -12q8 -35 -3 -68q-3 -11 -8 -14l-568 -244z" />
<glyph unicode="=" horiz-adv-x="958" d="M70 582q-6 0 -8 23t-0.5 46t6.5 23h821q9 0 9 -46t-9 -46h-819zM70 295q-6 0 -8 22.5t-0.5 45t6.5 22.5h821q9 0 9 -45t-9 -45h-819z" />
<glyph unicode="&#x3e;" horiz-adv-x="833" d="M760 518q10 -6 10 -35t-10 -34l-684 -304q-7 -3 -11 12q-8 35 3 69q3 11 8 14l567 243l-567 244q-14 6 -13 57q2 40 13 37z" />
<glyph unicode="?" horiz-adv-x="688" d="M334 1245q-36 0 -50 -24.5t-18 -63.5q-3 -24 -7 -40.5t-14.5 -38.5t-31.5 -34t-51 -12q-47 0 -69.5 26t-22.5 62q0 68 77 114t189 46q128 0 215.5 -63.5t87.5 -180.5q0 -34 -8.5 -64.5t-19.5 -51.5t-33.5 -46.5t-36.5 -38.5t-44 -38.5t-42 -36.5q-66 -60 -95.5 -119.5 t-29.5 -132.5q0 -42 12 -109q1 -5 -6 -8.5t-14.5 -3.5t-10.5 4q-24 55 -38.5 126.5t-14.5 121.5q0 45 13.5 82.5t33.5 62.5t44 54.5t44 56.5t33.5 71t13.5 97q0 80 -28.5 131t-77.5 51zM326 -23q-52 0 -82.5 30.5t-30.5 82.5q0 50 30.5 78.5t82.5 28.5t81 -28.5t29 -78.5 q0 -53 -29 -83t-81 -30z" />
<glyph unicode="@" horiz-adv-x="1486" d="M956 172q-79 0 -108.5 47.5t-9.5 134.5l8 41q-70 -105 -152 -167t-153 -62q-57 0 -90.5 43t-20.5 133q12 83 57 166.5t105 145.5t131 101.5t133 39.5q67 0 100 -47q48 21 60 61q3 3 19 2t16 -4l-84 -461q-12 -62 2.5 -94.5t68.5 -32.5q81 0 154.5 88t73.5 236 q0 206 -146 349.5t-362 143.5q-117 0 -214 -46t-160 -124t-97.5 -180.5t-34.5 -216.5q0 -250 154 -401.5t409 -151.5q96 0 175 22.5t167 79.5q6 5 12 -3t0 -13q-184 -154 -424 -154q-170 0 -307 66.5t-219 197.5t-82 306q0 144 57.5 270t152.5 211.5t220.5 134.5t259.5 49 q120 0 222 -39t171 -104.5t107.5 -152t38.5 -181.5q0 -117 -55 -217t-149.5 -158.5t-205.5 -58.5zM629 281q66 0 149.5 109.5t108.5 230.5q9 53 -7.5 90.5t-54.5 36.5q-75 -4 -144 -98t-93 -216q-32 -153 41 -153z" />
<glyph unicode="A" horiz-adv-x="1456" d="M1456 25q9 0 9 -12.5t-9 -12.5q-40 0 -125 4t-125 4q-47 0 -118 -4t-111 -4q-9 0 -9 12.5t9 12.5q93 0 110 33t-30 128l-221 449h-371l-158 -354q-50 -125 -3.5 -190.5t171.5 -65.5q9 0 9 -12.5t-9 -12.5q-37 0 -111.5 4t-130.5 4q-53 0 -124 -4t-113 -4q-9 0 -9 12.5 t9 12.5q83 0 135 54.5t127 221.5l438 991q2 5 17 5.5t18 -5.5l500 -1011q73 -147 121 -201.5t104 -54.5zM487 688h322l-168 342z" />
<glyph unicode="B" horiz-adv-x="1193" d="M719 719q169 -19 268.5 -112.5t99.5 -233.5q0 -163 -128.5 -272t-321.5 -109q-37 0 -143 6t-154 6q-50 0 -136 -2t-118 -2q-6 0 -6 12.5t6 12.5q96 0 127 26.5t31 114.5v948q0 87 -30.5 114t-125.5 27q-4 0 -4 12.5t4 12.5q32 0 117 -3t135 -3q38 0 123 6t125 6 q181 0 278 -70t97 -196q0 -98 -63.5 -177t-180.5 -124zM553 1245q-65 0 -89 -26.5t-24 -108.5v-389q49 -2 86 -2q121 0 182.5 78.5t61.5 203.5q0 116 -55 180t-162 64zM602 39q279 0 279 285q0 157 -81 250.5t-237 93.5q-74 0 -123 -4v-498q0 -71 31 -99t131 -28z" />
<glyph unicode="C" horiz-adv-x="1370" d="M858 1303q92 0 191 -16.5t157 -43.5q18 -9 23.5 -18t7.5 -31l25 -266q0 -5 -10 -7t-13 5q-60 159 -179.5 243t-281.5 84q-213 0 -333.5 -150.5t-120.5 -400.5q0 -189 66.5 -346.5t184.5 -249.5t263 -92q276 0 419 344q3 7 14 5t11 -7l-31 -262q-3 -19 -5.5 -26t-7.5 -12 t-17 -9q-182 -72 -381 -72q-152 0 -278 40.5t-210 107t-142 154.5t-84 181t-26 189q0 145 63 269.5t168 208t242 131t285 47.5z" />
<glyph unicode="D" horiz-adv-x="1435" d="M653 -8q-41 0 -160.5 6t-173.5 6q-50 0 -135.5 -2t-117.5 -2q-6 0 -6 12.5t6 12.5q100 0 128.5 26t28.5 115v948q0 89 -28 115t-127 26q-4 0 -4 12.5t4 12.5q32 0 116.5 -3t134.5 -3q51 0 158.5 5t145.5 5q157 0 291 -48t225 -131t142.5 -197.5t51.5 -245.5 q0 -150 -54.5 -277t-147 -212.5t-216.5 -133t-262 -47.5zM631 33q217 0 350 153.5t133 429.5q0 176 -56.5 318t-165 225.5t-249.5 83.5q-129 0 -176 -24.5t-47 -108.5v-922q0 -84 43 -119.5t168 -35.5z" />
<glyph unicode="E" horiz-adv-x="1120" d="M1001 319q1 4 13 2.5t12 -6.5q-20 -156 -20 -284q0 -18 -6.5 -24.5t-24.5 -6.5h-889q-6 0 -6 12.5t6 12.5q99 0 127.5 25.5t28.5 115.5v948q0 88 -28.5 114.5t-127.5 26.5q-6 0 -6 12.5t6 12.5h854q18 0 18 -18l5 -267q0 -3 -5.5 -4.5t-11.5 -1t-6 3.5q-52 234 -287 234 h-82q-75 0 -105 -27t-30 -92v-416h199q223 0 223 152q0 6 12.5 6t12.5 -6q0 -48 -2 -102t-2 -76q0 -33 3 -98t3 -103q0 -6 -12.5 -6t-12.5 6q0 174 -229 174h-195v-465q0 -68 25.5 -94.5t91.5 -26.5h100q275 0 348 266z" />
<glyph unicode="F" horiz-adv-x="1060" d="M958 1262l5 -267q0 -3 -5.5 -4.5t-11.5 -1t-6 3.5q-52 234 -287 234h-82q-74 0 -104.5 -26.5t-30.5 -88.5v-444h168q230 0 230 151q0 6 12 6t12 -6q0 -47 -1 -101.5t-1 -76.5q0 -33 2 -98t2 -103q0 -6 -12 -6t-12 6q0 176 -236 176h-164v-442q0 -65 17 -94.5t64.5 -42 t148.5 -12.5q4 0 4 -12.5t-4 -12.5q-39 0 -147.5 2t-184.5 2q-51 0 -138.5 -2t-119.5 -2q-6 0 -6 12.5t6 12.5q106 0 136 26t30 115v948q0 88 -28.5 114.5t-127.5 26.5q-6 0 -6 12.5t6 12.5h854q18 0 18 -18z" />
<glyph unicode="G" horiz-adv-x="1470" d="M836 -25q-170 0 -310 51t-232.5 139.5t-143 207t-50.5 254.5q0 197 101.5 352t279 239.5t398.5 84.5q95 0 191.5 -16.5t156.5 -45.5q16 -7 21 -16t7 -31l25 -266q0 -5 -10 -7t-13 5q-63 155 -186.5 240t-288.5 85q-226 0 -346.5 -146.5t-120.5 -402.5q0 -203 74 -361 t203.5 -244.5t292.5 -86.5q68 0 109 9t71.5 36t42.5 75.5t12 127.5q0 55 -1.5 85t-10 58.5t-20 40.5t-38 21.5t-58 11.5t-85.5 2q-7 0 -10.5 8.5t-1 16.5t9.5 8q242 -16 486 -4q9 0 9.5 -14.5t-9.5 -14.5q-59 1 -71.5 -36t-12.5 -203q0 -82 7 -129.5t7 -51.5q0 -11 -5 -15 t-20 -9q-258 -58 -460 -58z" />
<glyph unicode="H" horiz-adv-x="1560" d="M1493 25q6 0 6 -12.5t-6 -12.5q-32 0 -122.5 2t-141.5 2q-64 0 -154 -2t-119 -2q-4 0 -4 12.5t4 12.5q113 0 143.5 25.5t30.5 115.5v473h-702v-473q0 -90 31 -115.5t143 -25.5q4 0 4 -12.5t-4 -12.5q-33 0 -123.5 2t-154.5 2q-51 0 -138.5 -2t-119.5 -2q-6 0 -6 12.5 t6 12.5q105 0 135 25.5t30 115.5v948q0 88 -30 114.5t-133 26.5q-4 0 -4 12.5t4 12.5q32 0 118.5 -3t137.5 -3q64 0 155 3t123 3q4 0 4 -12.5t-4 -12.5q-109 0 -141.5 -28t-32.5 -117v-418h702v418q0 90 -31 117.5t-143 27.5q-4 0 -4 12.5t4 12.5q29 0 119 -3t154 -3 q51 0 141.5 3t122.5 3q6 0 6 -12.5t-6 -12.5q-105 0 -135.5 -26.5t-30.5 -114.5v-948q0 -89 30 -115t136 -26z" />
<glyph unicode="I" horiz-adv-x="692" d="M446 166q0 -90 27.5 -115.5t128.5 -25.5q4 0 4 -12.5t-4 -12.5q-32 0 -117.5 2t-140.5 2q-51 0 -136.5 -2t-117.5 -2q-6 0 -6 12.5t6 12.5q100 0 129 26t29 115v948q0 88 -29.5 114.5t-128.5 26.5q-6 0 -6 12.5t6 12.5q32 0 117.5 -3t136.5 -3q55 0 141.5 3t116.5 3 q4 0 4 -12.5t-4 -12.5q-98 0 -127 -28t-29 -117v-944z" />
<glyph unicode="J" horiz-adv-x="684" d="M598 1280q6 0 6 -12.5t-6 -12.5q-84 0 -107.5 -27.5t-23.5 -117.5v-1135q0 -221 -107 -347t-301 -126q-75 0 -122.5 30t-47.5 81q0 38 25 66t72 28q41 0 68.5 -25.5t39 -55.5t29.5 -55.5t41 -25.5q53 0 78.5 75t25.5 245v1249q0 89 -33 115t-149 26q-4 0 -4 12.5t4 12.5 q38 0 132 -3t147 -3q51 0 128 3t105 3z" />
<glyph unicode="K" horiz-adv-x="1337" d="M1346 25q4 0 4 -12.5t-4 -12.5h-232q-20 0 -51 -1q-62 -3 -89 18.5t-127 157.5q-55 74 -91 122l-283 373l-53 -54v-450q0 -90 27.5 -115.5t127.5 -25.5q6 0 6 -12.5t-6 -12.5q-31 0 -116.5 2t-139.5 2q-50 0 -135.5 -2t-117.5 -2q-6 0 -6 12.5t6 12.5q100 0 128.5 26 t28.5 115v948q0 89 -28 115t-127 26q-4 0 -4 12.5t4 12.5q32 0 116.5 -3t134.5 -3q54 0 140 3t116 3q5 0 5 -12.5t-5 -12.5q-98 0 -126.5 -28t-28.5 -117v-432l401 405q77 77 60 124.5t-121 47.5q-4 0 -4 12.5t4 12.5q30 0 109 -3t147 -3t145.5 3t104.5 3q6 0 6 -12.5 t-6 -12.5q-92 0 -199 -48.5t-193 -135.5l-264 -264l301 -397q71 -98 120.5 -162.5t91 -108.5t66 -66t55 -33.5t48 -13t54.5 -1.5z" />
<glyph unicode="L" horiz-adv-x="1107" d="M416 1112v-938q0 -78 24.5 -99.5t110.5 -21.5h121q145 0 245.5 81t133.5 220q1 4 12.5 2.5t11.5 -6.5q-20 -172 -20 -319q0 -18 -6.5 -24.5t-24.5 -6.5h-958q-6 0 -6 12.5t6 12.5q99 0 127 25.5t28 115.5v948q0 89 -28 115t-127 26q-6 0 -6 12.5t6 12.5q29 0 114 -3 t137 -3q54 0 140 3t116 3q5 0 5 -12.5t-5 -12.5q-99 0 -128 -27t-29 -116z" />
<glyph unicode="M" horiz-adv-x="1740" d="M1692 25q4 0 4 -12.5t-4 -12.5q-32 0 -118 2t-136 2q-53 0 -136.5 -2t-113.5 -2q-4 0 -4 12.5t4 12.5q98 0 125.5 26t23.5 115l-41 864l-436 -1016q-4 -8 -17 -8t-18 8l-512 1012l-18 -778q-2 -109 42 -166t132 -57q6 0 6 -12.5t-6 -12.5q-27 0 -92.5 2t-106.5 2 q-44 0 -113 -2t-94 -2q-6 0 -6 12.5t6 12.5q84 0 131 58t48 165l18 882q-68 125 -182 125q-6 0 -6 12.5t6 12.5q28 0 83.5 -2t74.5 -2q35 0 81.5 2t55.5 2q27 0 43 -19t51 -87l451 -879l407 934q12 28 26.5 39.5t37.5 11.5q8 0 38 -2t52 -2q45 0 104.5 2t85.5 2q5 0 5 -12.5 t-5 -12.5q-99 0 -142.5 -35.5t-39.5 -117.5l47 -936q3 -63 15 -90.5t43 -39t100 -11.5z" />
<glyph unicode="N" horiz-adv-x="1499" d="M1468 1280q4 0 4 -12.5t-4 -12.5q-83 0 -127.5 -58t-44.5 -167v-1059q0 -5 -10 -6.5t-14 2.5l-961 1116v-835q0 -108 43 -165.5t125 -57.5q5 0 5 -12.5t-5 -12.5q-28 0 -90.5 2t-101.5 2q-41 0 -113 -2t-102 -2q-6 0 -6 12.5t6 12.5q89 0 136.5 58t47.5 165v899 q-103 108 -199 108q-5 0 -5 12.5t5 12.5q26 0 80.5 -2t77.5 -2q47 0 111.5 2t76.5 2q13 0 23 -6.5t17 -16t24.5 -35t36.5 -48.5l737 -869v725q0 109 -42.5 167t-123.5 58q-5 0 -5 12.5t5 12.5q26 0 90 -3t103 -3q38 0 105 3t95 3z" />
<glyph unicode="O" horiz-adv-x="1568" d="M750 -25q-191 0 -341 91t-229.5 242t-79.5 331q0 129 43 239t115 187t165.5 131.5t195 80.5t202.5 26q146 0 270 -55t205.5 -146.5t126.5 -208t45 -240.5q0 -140 -58 -266t-155 -216t-229 -143t-276 -53zM819 25q188 0 309 151t121 418q0 189 -61 337.5t-178 234 t-271 85.5q-201 0 -310.5 -142.5t-109.5 -395.5q0 -195 64 -352.5t178.5 -246.5t257.5 -89z" />
<glyph unicode="P" horiz-adv-x="1126" d="M426 174q0 -65 15.5 -94.5t59 -42t138.5 -12.5q5 0 5 -12.5t-5 -12.5q-40 0 -142 2t-167 2q-51 0 -136.5 -2t-117.5 -2q-6 0 -6 12.5t6 12.5q99 0 127 25.5t28 115.5v948q0 89 -28 115t-127 26q-6 0 -6 12.5t6 12.5q32 0 116.5 -3t135.5 -3q29 0 128.5 6t151.5 6 q198 0 315.5 -82t123.5 -254q2 -82 -23.5 -151.5t-70 -116.5t-104 -80.5t-123 -49t-128.5 -15.5q-57 0 -96 10q-5 1 -5.5 8t2.5 13t7 5q33 -8 72 -8q107 0 180 88.5t73 251.5q0 162 -75.5 251t-208.5 89q-73 0 -97 -25t-24 -110v-936z" />
<glyph unicode="Q" horiz-adv-x="1568" d="M1526 -354q4 1 7 -4t3.5 -10t-2.5 -7q-91 -24 -168 -24q-99 0 -205.5 41.5t-211 128t-183.5 204.5h-16q-191 0 -341 91t-229.5 242t-79.5 331q0 129 43 239t115 187t165.5 131.5t195 80.5t202.5 26q146 0 270 -55t205.5 -146.5t126.5 -208t45 -240.5q0 -220 -134 -394.5 t-345 -244.5q82 -163 214.5 -267.5t250.5 -104.5q36 0 72 4zM319 713q0 -195 64 -352.5t178.5 -246.5t257.5 -89q188 0 309 151t121 418q0 189 -61 337.5t-178 234t-271 85.5q-201 0 -310.5 -142.5t-109.5 -395.5z" />
<glyph unicode="R" horiz-adv-x="1413" d="M1432 25q6 0 6 -12.5t-6 -12.5h-330q-47 0 -176 171.5t-312 477.5q-35 -6 -69 -6q-74 0 -105 2v-479q0 -90 27.5 -115.5t128.5 -25.5q4 0 4 -12.5t-4 -12.5q-32 0 -117.5 2t-138.5 2q-50 0 -136 -2t-118 -2q-6 0 -6 12.5t6 12.5q100 0 129 26t29 115v948 q0 88 -28.5 114.5t-127.5 26.5q-4 0 -4 12.5t4 12.5q32 0 117 -3t135 -3q38 0 130.5 6t133.5 6q182 0 280.5 -68t98.5 -192q0 -96 -56.5 -180.5t-150.5 -138.5q248 -382 390.5 -532t265.5 -150zM440 700q56 -6 119 -6q122 0 171.5 55.5t49.5 202.5q0 165 -55 230t-156 65 q-73 0 -101 -28.5t-28 -108.5v-410z" />
<glyph unicode="S" horiz-adv-x="1038" d="M338 1063q0 -47 17 -89.5t39 -72.5t66.5 -66t74 -55t86.5 -55q59 -37 92 -59t80.5 -61.5t73 -75t44.5 -86.5t19 -107q0 -159 -121 -260t-315 -101q-85 0 -176 23t-138 57q-18 9 -20 37l-13 309q-1 9 9.5 11t15.5 -4q23 -60 45 -107t57 -102.5t72 -92t89 -61.5t110 -25 q42 0 77 10t66 32.5t48.5 64.5t17.5 100q0 41 -10 79t-22 66t-39.5 59.5t-45.5 49.5t-58 47t-58 41t-64 41q-129 83 -177 128q-110 103 -110 237q0 82 36.5 146.5t96.5 103t132.5 58.5t150.5 20q150 0 254 -48q32 -13 32 -38l5 -279q0 -6 -11 -8.5t-14 4.5 q-101 330 -315 330q-92 0 -145.5 -54.5t-53.5 -146.5z" />
<glyph unicode="T" horiz-adv-x="1310" d="M432 1237q-126 0 -205.5 -76.5t-122.5 -232.5q-2 -4 -13 -3.5t-11 5.5q8 63 18.5 195t10.5 200q0 9 12 9.5t12 -9.5q0 -45 113 -45q175 -6 411 -6q108 0 231.5 3t164.5 3q77 0 113 10t46 41q2 7 12.5 7t10.5 -7q-6 -63 -12 -204.5t-6 -196.5q0 -4 -11.5 -4t-13.5 4 q-21 158 -96.5 232.5t-204.5 74.5q-84 0 -107.5 -24t-23.5 -103v-944q0 -63 12.5 -90.5t48.5 -39t117 -11.5q6 0 6 -12.5t-6 -12.5q-33 0 -126.5 2t-154.5 2q-55 0 -148.5 -2t-129.5 -2q-5 0 -5 12.5t5 12.5q114 0 148 26t34 115v948q0 76 -24.5 99.5t-104.5 23.5z" />
<glyph unicode="U" horiz-adv-x="1435" d="M1169 1030q0 107 -47.5 166t-136.5 59q-6 0 -6 12.5t6 12.5q29 0 99.5 -3t115.5 -3q38 0 105.5 3t95.5 3q5 0 5 -12.5t-5 -12.5q-81 0 -124.5 -59t-43.5 -166v-573q0 -223 -137.5 -354.5t-364.5 -131.5q-229 0 -370.5 130.5t-141.5 353.5v659q0 88 -28.5 114.5 t-127.5 26.5q-6 0 -6 12.5t6 12.5q32 0 116.5 -3t135.5 -3q54 0 139 3t115 3q6 0 6 -12.5t-6 -12.5q-98 0 -126.5 -28t-28.5 -117v-584q0 -243 100.5 -362t284.5 -119q174 0 272 107.5t98 302.5v575z" />
<glyph unicode="V" horiz-adv-x="1355" d="M1366 1280q4 0 4 -12.5t-4 -12.5q-73 0 -136 -56t-102 -159l-397 -1038q-3 -8 -22.5 -8t-22.5 8l-518 1108q-36 76 -73.5 110.5t-88.5 34.5q-6 0 -6 12.5t6 12.5q19 0 63.5 -3t94.5 -3q112 0 213 3t119 3q4 0 4 -12.5t-4 -12.5q-87 0 -117 -43t6 -125l387 -823l303 785 q37 92 3 149t-136 57q-4 0 -4 12.5t4 12.5q34 0 108.5 -3t133.5 -3q39 0 93.5 3t88.5 3z" />
<glyph unicode="W" horiz-adv-x="1880" d="M1890 1280q4 0 4 -12.5t-4 -12.5q-73 0 -134.5 -55t-102.5 -160l-398 -1038q-3 -8 -22.5 -8t-22.5 8l-264 565l-215 -565q-3 -8 -22.5 -8t-22.5 8l-518 1108q-42 89 -72.5 117t-89.5 28q-6 0 -6 12.5t6 12.5q19 0 63.5 -3t94.5 -3q93 0 177.5 3t100.5 3q4 0 4 -12.5 t-4 -12.5q-85 0 -99 -32.5t34 -135.5l391 -833l147 381l-223 475q-36 75 -68.5 110t-74.5 35q-6 0 -6 12.5t6 12.5q17 0 56.5 -3t82.5 -3q76 0 144.5 3t80.5 3q5 0 5 -12.5t-5 -12.5q-21 0 -33.5 -2.5t-19.5 -10t-8 -18.5t5 -31t16 -44t28 -62l111 -233l73 195 q42 107 36.5 156.5t-60.5 49.5q-6 0 -6 12.5t6 12.5q12 0 42 -3t91 -3q36 0 85.5 3t78.5 3q6 0 6 -12.5t-6 -12.5q-136 0 -219 -215l-97 -252l252 -532l299 776q38 101 9 162t-117 61q-6 0 -6 12.5t6 12.5q31 0 100 -3t123 -3q39 0 93.5 3t88.5 3z" />
<glyph unicode="X" horiz-adv-x="1327" d="M1313 25q6 0 6 -12.5t-6 -12.5q-27 0 -96.5 2t-112.5 2q-63 0 -150.5 -2t-119.5 -2q-6 0 -6 12.5t6 12.5q37 0 56 6.5t23.5 24t-18.5 48.5l-291 447l-205 -289q-78 -112 -67.5 -174.5t108.5 -62.5q6 0 6 -12.5t-6 -12.5q-33 0 -108.5 2t-136.5 2q-39 0 -92 -2t-85 -2 q-6 0 -6 12.5t6 12.5q66 0 150.5 60.5t175.5 184.5l236 320l-330 508q-57 86 -107 121.5t-112 35.5q-6 0 -6 12.5t6 12.5q27 0 84 -3t84 -3q62 0 158.5 3t129.5 3q5 0 5 -12.5t-5 -12.5q-28 0 -45.5 -3t-28 -11.5t-8 -25t18.5 -41.5l281 -431l190 271q80 114 69.5 177.5 t-108.5 63.5q-4 0 -4 12.5t4 12.5q34 0 110 -3t138 -3q38 0 90.5 3t85.5 3q4 0 4 -12.5t-4 -12.5q-67 0 -152 -62.5t-178 -188.5l-221 -299l348 -535q52 -78 107 -111.5t129 -33.5z" />
<glyph unicode="Y" horiz-adv-x="1261" d="M1272 1280q4 0 4 -12.5t-4 -12.5q-67 0 -153.5 -70t-153.5 -181l-234 -379v-459q0 -90 27.5 -115.5t128.5 -25.5q5 0 5 -12.5t-5 -12.5q-31 0 -116 2t-140 2q-50 0 -136 -2t-118 -2q-5 0 -5 12.5t5 12.5q100 0 129 26t29 115v422l-312 473q-70 108 -120.5 151t-96.5 43 q-6 0 -6 12.5t6 12.5q21 0 66.5 -3t66.5 -3q61 0 176.5 3t147.5 3q5 0 5 -12.5t-5 -12.5q-65 0 -80.5 -34t20.5 -88l299 -457l207 342q66 107 49.5 172t-110.5 65q-4 0 -4 12.5t4 12.5q36 0 117.5 -3t148.5 -3q34 0 81.5 3t76.5 3z" />
<glyph unicode="Z" horiz-adv-x="1232" d="M119 27l749 1202q3 6 4.5 8.5t0.5 4.5t-4.5 2.5t-10.5 0.5q-104 0 -172.5 -1t-138 -6t-113 -12t-87 -20.5t-70.5 -31t-54 -44.5t-46.5 -59.5t-39.5 -77.5q-2 -4 -8 -4.5t-10.5 2t-3.5 6.5l82 344q1 3 7 3t11 -2t4 -5q-4 -37 17.5 -47t101.5 -10h745q9 0 15 -10.5t0 -16.5 l-738 -1198q-7 -11 -5 -13.5t14 -2.5h448q121 0 209.5 73t108.5 189q1 5 12.5 5t11.5 -5l-29 -285q0 -7 -6 -13.5t-14 -6.5q-303 4 -979 4q-9 0 -13 10t1 17z" />
<glyph unicode="[" horiz-adv-x="561" d="M152 -217v1681q0 14 3 17.5t15 3.5h313q6 0 6 -12.5t-6 -12.5q-100 0 -128.5 -28t-28.5 -117v-1385q0 -89 28.5 -117t128.5 -28q6 0 6 -12.5t-6 -12.5h-313q-12 0 -15 4t-3 19z" />
<glyph unicode="\" horiz-adv-x="712" d="M449 152l-238 839q-1 3 11 8t24.5 8t13.5 1l242 -844q0 -3 -26 -9.5t-27 -2.5z" />
<glyph unicode="]" horiz-adv-x="561" d="M410 -217q0 -15 -3.5 -19t-15.5 -4h-313q-6 0 -6 12.5t6 12.5q100 0 129 28t29 117v1385q0 89 -29 117t-129 28q-6 0 -6 12.5t6 12.5h313q12 0 15.5 -4t3.5 -17v-1681z" />
<glyph unicode="^" horiz-adv-x="802" d="M682 449q3 -6 -6 -11t-12 0l-263 301l-262 -301q-4 -4 -13 0.5t-7 10.5l260 509q1 10 21.5 10t23.5 -10z" />
<glyph unicode="_" horiz-adv-x="815" d="M70 -66q-6 0 -8 23.5t-0.5 47.5t6.5 24h796q9 0 9 -47.5t-9 -47.5h-794z" />
<glyph unicode="`" horiz-adv-x="561" d="M504 901q-230 102 -455 158q-22 4 27 27q75 35 134 43q18 3 23 -1q20 -15 81.5 -62.5t106.5 -80t93 -63.5q4 -3 4.5 -8.5t-4 -10.5t-10.5 -2z" />
<glyph unicode="a" horiz-adv-x="946" d="M918 117q6 3 10.5 -2t4 -10.5t-4.5 -8.5l-221 -106q-12 -4 -19 -4q-31 0 -60.5 37.5t-41.5 95.5l-131 -68q-127 -65 -205 -65q-75 0 -118.5 36t-43.5 101q0 62 41.5 102t130.5 72l318 117v276q0 125 -29.5 182.5t-93.5 57.5q-37 0 -67.5 -18.5t-50.5 -51t-33 -67 t-21 -74.5q-23 -103 -107 -103q-44 0 -71 25.5t-25 65.5q1 58 76 122.5t181.5 106t194.5 41.5q102 0 162 -56t60 -169v-496q0 -156 94 -156q24 0 70 17zM469 100l111 54q-2 10 -2 32v191l-195 -78q-94 -35 -94 -117q0 -47 25.5 -75.5t68.5 -28.5q38 0 86 22z" />
<glyph unicode="b" horiz-adv-x="1056" d="M653 530q156 -8 239 -68.5t83 -170.5q0 -133 -110.5 -216t-284.5 -83q-33 0 -138 6t-151 6q-42 0 -119 -2t-106 -2q-6 0 -6 12.5t6 12.5q90 0 115.5 25.5t25.5 115.5v627q0 89 -25.5 115t-113.5 26q-4 0 -4 12t4 12q29 0 105 -3t118 -3q39 0 127.5 6.5t136.5 6.5 q149 0 233 -52.5t84 -148.5q0 -78 -57 -138.5t-162 -95.5zM502 938q-72 0 -95.5 -29t-23.5 -121v-256q35 -2 94 -2t95.5 7t65.5 26.5t41.5 56t12.5 95.5q0 223 -190 223zM543 25q243 0 243 217q0 250 -321 250q-41 0 -82 -3v-323q0 -77 33 -109t127 -32z" />
<glyph unicode="c" horiz-adv-x="1091" d="M633 983q78 0 166 -15.5t145 -43.5q23 -10 25 -35l12 -211q0 -6 -11 -7.5t-14 5.5q-125 268 -354 268q-151 0 -238.5 -119.5t-87.5 -310.5q0 -74 13.5 -144.5t43 -135.5t72 -113.5t106 -77.5t140.5 -29q112 0 189.5 65.5t134.5 207.5q5 7 14.5 5.5t9.5 -7.5l-20 -217 q-2 -18 -6.5 -24t-22.5 -13q-160 -56 -327 -56q-120 0 -217.5 32.5t-159.5 84.5t-104 120.5t-59 135.5t-17 135q0 105 43.5 198t118.5 159t180 104.5t225 38.5z" />
<glyph unicode="d" horiz-adv-x="1163" d="M567 -8q-37 0 -132 6t-142 6q-43 0 -120.5 -2t-106.5 -2q-6 0 -6 12.5t6 12.5q90 0 115.5 25.5t25.5 115.5v627q0 89 -25.5 115t-113.5 26q-4 0 -4 12t4 12q29 0 105.5 -3t119.5 -3q42 0 126.5 5.5t123.5 5.5q259 0 406 -134t147 -344q0 -215 -148.5 -354t-380.5 -139z M543 31q164 0 256 112t92 320q0 95 -21.5 176.5t-64 146.5t-114 102.5t-165.5 37.5q-78 0 -110.5 -30t-32.5 -108v-600q0 -86 32 -121.5t128 -35.5z" />
<glyph unicode="e" horiz-adv-x="917" d="M852 111q6 4 13 -8q5 -8 1 -13q-146 -115 -317 -115q-116 0 -210.5 41.5t-152.5 110.5t-89 155t-31 179q0 218 150 368t374 150q132 0 207 -66.5t75 -173.5q0 -24 -4.5 -34.5t-17.5 -10.5l-582 -2q-14 -60 -14 -147q0 -223 103 -359.5t284 -136.5q120 0 211 62zM520 932 q-91 0 -152.5 -53t-91.5 -152l404 6q0 94 -44.5 146.5t-115.5 52.5z" />
<glyph unicode="f" horiz-adv-x="866" d="M811 942q0 -36 2 -119t2 -106q0 -6 -10.5 -6t-11.5 6q-72 215 -261 215h-28q-78 0 -100.5 -26.5t-22.5 -114.5v-302q96 2 170.5 6.5t109 8.5t39.5 4q13 0 13 -45q0 -51 -13 -51q-5 0 -39.5 5.5t-109 12.5t-170.5 10v-266q0 -49 6 -75.5t27.5 -44.5t56.5 -23.5t98 -5.5 q6 0 6 -12.5t-6 -12.5q-36 0 -129 2t-147 2q-44 0 -120 -2t-107 -2q-6 0 -6 12.5t6 12.5q89 0 114 25.5t25 115.5v627q0 89 -25.5 115t-113.5 26q-6 0 -6 12t6 12h727q18 0 18 -16z" />
<glyph unicode="g" horiz-adv-x="1132" d="M600 -25q-124 0 -227 41.5t-169 110.5t-102 156t-36 180q0 242 159 381t432 139q195 0 306 -63q3 -2 5.5 -3.5t4 -3.5t3 -3.5t2.5 -4.5t2 -4.5t1.5 -6t1 -6t1.5 -7t1 -7.5l12 -192q0 -5 -10.5 -7t-13.5 5q-130 264 -365 264q-157 0 -248.5 -120t-91.5 -335 q0 -210 103 -341.5t276 -131.5q69 0 106 8.5t60.5 36.5t30 72t6.5 125q0 75 -24.5 93t-127.5 18q-8 0 -11 8t-0.5 16t9.5 8q182 -13 379 -4q9 0 9.5 -14t-9.5 -14q-49 1 -59 -19t-10 -112q0 -81 5 -129.5t5 -51.5q0 -4 -1 -7l-1.5 -4.5t-3.5 -3.5t-4.5 -2.5t-6.5 -3t-8 -3.5 q-136 -58 -391 -58z" />
<glyph unicode="h" horiz-adv-x="1286" d="M1221 25q6 0 6 -12.5t-6 -12.5q-28 0 -105.5 2t-122.5 2q-47 0 -124 -2t-105 -2q-4 0 -4 12.5t4 12.5q89 0 114 25.5t25 115.5v295h-520v-295q0 -89 25.5 -115t113.5 -26q4 0 4 -12.5t-4 -12.5q-28 0 -104.5 2t-124.5 2q-43 0 -120.5 -2t-106.5 -2q-6 0 -6 12.5t6 12.5 q89 0 115 26t26 115v627q0 88 -26 114.5t-113 26.5q-4 0 -4 12t4 12q29 0 105.5 -3t119.5 -3q49 0 125.5 3t103.5 3q4 0 4 -12t-4 -12q-87 0 -113 -28.5t-26 -117.5v-280h520v280q0 89 -25.5 117.5t-113.5 28.5q-4 0 -4 12t4 12q28 0 105 -3t124 -3q45 0 122.5 3t105.5 3 q6 0 6 -12t-6 -12q-89 0 -114.5 -26.5t-25.5 -114.5v-627q0 -89 25.5 -115t114.5 -26z" />
<glyph unicode="i" horiz-adv-x="614" d="M397 166q0 -89 25.5 -115t114.5 -26q5 0 5 -12.5t-5 -12.5q-28 0 -105 2t-127 2q-45 0 -122 -2t-105 -2q-6 0 -6 12.5t6 12.5q90 0 115.5 25.5t25.5 115.5v627q0 89 -25.5 115t-115.5 26q-6 0 -6 12t6 12q28 0 105 -3t122 -3q50 0 128.5 3t103.5 3q5 0 5 -12t-5 -12 q-88 0 -114 -28.5t-26 -117.5v-622z" />
<glyph unicode="j" horiz-adv-x="555" d="M203 45v748q0 88 -22 114.5t-97 26.5q-6 0 -6 12t6 12q26 0 97.5 -3t111.5 -3q46 0 113.5 3t91.5 3q6 0 6 -12t-6 -12q-73 0 -95 -28.5t-22 -117.5v-647q0 -227 -66.5 -334.5t-251.5 -177.5q-4 -1 -7.5 4t-4 10t1.5 7q72 43 111 145t39 250z" />
<glyph unicode="k" horiz-adv-x="1126" d="M1139 25q6 0 6 -12.5t-6 -12.5h-254h-24q-40 -1 -53 8.5t-51 65.5q-75 113 -159 223l-149 195l-66 -64v-262q0 -89 25.5 -115t113.5 -26q4 0 4 -12.5t-4 -12.5q-28 0 -104.5 2t-124.5 2q-43 0 -120.5 -2t-106.5 -2q-6 0 -6 12.5t6 12.5q89 0 115 26t26 115v627 q0 88 -26 114.5t-113 26.5q-4 0 -4 12t4 12q29 0 105.5 -3t119.5 -3q49 0 125.5 3t103.5 3q4 0 4 -12t-4 -12q-87 0 -113 -28.5t-26 -117.5v-288l272 274q156 153 27 160h-14q-6 0 -6 12t6 12q27 0 94.5 -3t128.5 -3q65 0 129 3t72 3q4 0 4 -12t-4 -12q-77 0 -192 -53 t-198 -136l-129 -129l162 -210q137 -180 200.5 -253t106.5 -100.5t97 -27.5z" />
<glyph unicode="l" horiz-adv-x="954" d="M375 791v-617q0 -81 27 -108t116 -27h60q114 0 198 73t123 199q1 5 13 3.5t12 -7.5q-15 -108 -15 -276q0 -18 -6 -24.5t-24 -6.5h-813q-6 0 -6 12.5t6 12.5q82 0 105.5 26t23.5 115v627q0 88 -24 114.5t-105 26.5q-6 0 -6 12t6 12q29 0 104.5 -3t120.5 -3q47 0 124.5 3 t104.5 3q4 0 4 -12t-4 -12q-92 0 -118.5 -27t-26.5 -116z" />
<glyph unicode="m" horiz-adv-x="1824" d="M1815 25q5 0 5 -12.5t-5 -12.5q-27 0 -103.5 2t-126.5 2q-46 0 -121 -2t-102 -2q-4 0 -4 12.5t4 12.5q88 0 113.5 26t25.5 115v414q0 148 -50.5 221t-156.5 73q-149 0 -276 -108q14 -52 14 -125v-475q0 -90 25 -115.5t114 -25.5q5 0 5 -12.5t-5 -12.5q-27 0 -103 2 t-126 2q-46 0 -121 -2t-102 -2q-5 0 -5 12.5t5 12.5q88 0 113.5 26t25.5 115v414q0 148 -50.5 221t-156.5 73q-142 0 -266 -100v-608q0 -90 25 -115.5t114 -25.5q4 0 4 -12.5t-4 -12.5q-27 0 -103 2t-126 2q-46 0 -121 -2t-102 -2q-4 0 -4 12.5t4 12.5q87 0 112 25.5 t25 115.5v627q0 89 -25.5 115t-115.5 26q-6 0 -6 12t6 12q31 0 91 -1t95 -1q21 0 50 1t42 1q26 0 32.5 -6.5t6.5 -31.5v-105q167 170 354 170q102 0 172 -48.5t99 -139.5q92 97 182 142.5t190 45.5q140 0 216.5 -90.5t76.5 -253.5v-475q0 -89 25.5 -115t114.5 -26z" />
<glyph unicode="n" horiz-adv-x="1228" d="M1219 25q6 0 6 -12.5t-6 -12.5q-26 0 -102.5 2t-125.5 2q-46 0 -122 -2t-103 -2q-4 0 -4 12.5t4 12.5q88 0 113.5 26t25.5 115v414q0 147 -56.5 220.5t-180.5 73.5q-148 0 -283 -104v-604q0 -90 25 -115.5t114 -25.5q4 0 4 -12.5t-4 -12.5q-27 0 -103 2t-126 2 q-46 0 -121 -2t-102 -2q-4 0 -4 12.5t4 12.5q87 0 112 25.5t25 115.5v627q0 89 -25.5 115t-115.5 26q-6 0 -6 12t6 12q31 0 91 -1t95 -1q21 0 50 1t42 1q26 0 32.5 -6.5t6.5 -31.5v-107q175 172 371 172q156 0 239.5 -90t83.5 -254v-475q0 -89 25.5 -115t114.5 -26z" />
<glyph unicode="o" d="M563 -25q-145 0 -260 69.5t-176 183.5t-61 249q0 119 50 218t130 160.5t175.5 94.5t192.5 33q145 0 258.5 -72.5t171.5 -183.5t58 -235q0 -138 -71.5 -257t-196 -189.5t-271.5 -70.5zM612 20q130 0 209.5 113t79.5 311q0 209 -97.5 349.5t-258.5 140.5 q-134 0 -205.5 -102t-71.5 -295q0 -145 43 -262.5t122 -186t179 -68.5z" />
<glyph unicode="p" horiz-adv-x="958" d="M381 174q0 -93 34.5 -121t153.5 -28q6 0 6 -12.5t-6 -12.5q-35 0 -127 2t-149 2q-43 0 -120.5 -2t-106.5 -2q-6 0 -6 12.5t6 12.5q87 0 113 26t26 115v627q0 88 -26.5 114.5t-112.5 26.5q-6 0 -6 12t6 12q29 0 104.5 -3t120.5 -3q36 0 120 6.5t126 6.5q170 0 258 -57.5 t94 -178.5q4 -74 -25.5 -135t-80.5 -98.5t-113 -57.5t-127 -20q-42 0 -62 4q-4 2 -5.5 9t2 13t11.5 5q4 0 17.5 -1.5t23.5 -1.5q71 0 114.5 59t43.5 177q0 248 -199 248q-30 0 -47.5 -4t-33 -18.5t-21.5 -43t-6 -76.5v-614z" />
<glyph unicode="q" d="M1233 -322q4 1 7 -4t3.5 -9.5t-2.5 -6.5q-80 -25 -164 -25q-139 0 -275 88.5t-235 253.5h-4q-145 0 -260 69.5t-176 183.5t-61 249q0 119 50 218t130 160.5t175.5 94.5t192.5 33q145 0 258.5 -72.5t171.5 -183.5t58 -235q0 -159 -94 -291t-246 -189q68 -148 181.5 -244 t223.5 -96q39 0 66 6zM268 537q0 -145 43 -262.5t122 -186t179 -68.5q130 0 209.5 113t79.5 311q0 209 -97.5 349.5t-258.5 140.5q-134 0 -205.5 -102t-71.5 -295z" />
<glyph unicode="r" horiz-adv-x="1112" d="M1143 25q6 0 6 -12.5t-6 -12.5h-303q-32 0 -117 123.5t-201 337.5q-40 -6 -84 -6q-35 0 -51 2v-291q0 -90 24 -115.5t111 -25.5q4 0 4 -12.5t-4 -12.5q-28 0 -103.5 2t-125.5 2q-42 0 -120 -2t-107 -2q-6 0 -6 12.5t6 12.5q87 0 112 25.5t25 115.5v627q0 88 -24.5 114.5 t-110.5 26.5q-4 0 -4 12t4 12q29 0 106 -3t119 -3q39 0 128 6.5t124 6.5q152 0 231.5 -51t79.5 -148q0 -81 -50 -149.5t-136 -110.5q163 -274 265.5 -377.5t207.5 -103.5zM387 494q8 0 29.5 -1t36.5 -1q119 0 165 55.5t46 163.5q0 217 -168 217q-68 0 -88.5 -28t-20.5 -112 v-294z" />
<glyph unicode="s" horiz-adv-x="843" d="M274 803q0 -35 14 -67t30.5 -52.5t53.5 -46.5t57.5 -37.5t69.5 -37.5q9 -5 13 -7q39 -21 56 -30t51.5 -30t51.5 -35t41 -38t35 -46t20 -51.5t9 -62.5q0 -122 -100.5 -204.5t-259.5 -82.5q-85 0 -165.5 21.5t-119.5 52.5q-18 9 -18 41l-13 223q-1 9 9.5 10.5t13.5 -6.5 q26 -56 57.5 -105.5t72.5 -95.5t92.5 -73t105.5 -27q65 0 110 39t45 119q0 40 -15 76t-35 61t-57 53t-64 44t-73 41q-49 27 -75 42t-64.5 43.5t-58 53t-34.5 61.5t-15 78q0 118 99.5 187t240.5 69q136 0 235 -47q19 -7 25 -15.5t8 -23.5l4 -190q0 -6 -11 -9t-14 4 q-8 27 -29 62.5t-55 78t-86.5 71t-111.5 28.5q-72 0 -109 -38.5t-37 -100.5z" />
<glyph unicode="t" horiz-adv-x="776" d="M733 111q7 7 12 -5q5 -10 -2 -14q-83 -64 -148.5 -90.5t-143.5 -26.5q-55 0 -102.5 14t-89.5 45t-66.5 88t-24.5 136v537q0 61 -21 79.5t-88 18.5q-7 0 -7 16.5t7 16.5q97 0 167 44.5t87 114.5q1 7 16 5.5t15 -7.5v-151q147 6 344 20q14 0 14 -47q0 -13 -3 -27 t-7.5 -22.5t-9.5 -7.5q-134 33 -338 37v-574q0 -256 197 -256q105 0 192 56z" />
<glyph unicode="u" horiz-adv-x="1187" d="M971 733q0 108 -39 154.5t-131 46.5q-5 0 -5 12t5 12q28 0 90.5 -3t101.5 -3q32 0 92 3t84 3q6 0 6 -12t-6 -12q-82 0 -115.5 -46t-33.5 -155v-356q0 -191 -105.5 -297.5t-283.5 -106.5q-115 0 -210 44t-153.5 132.5t-58.5 206.5v437q0 89 -25.5 115t-113.5 26 q-4 0 -4 12t4 12q29 0 105 -3t118 -3q49 0 125.5 3t103.5 3q4 0 4 -12t-4 -12q-88 0 -113.5 -28.5t-25.5 -117.5v-378q0 -184 84 -271.5t219 -87.5q132 0 208.5 83.5t76.5 238.5v360z" />
<glyph unicode="v" horiz-adv-x="1044" d="M1055 958q6 0 6 -12t-6 -12q-117 0 -185 -172l-295 -760q-5 -8 -24 -8t-23 8l-374 786q-41 86 -71.5 116t-84.5 30q-6 0 -6 12t6 12q30 0 95.5 -3t119.5 -3q47 0 117.5 3t97.5 3q6 0 6 -12t-6 -12q-149 0 -88 -125l278 -571l201 536q64 160 -117 160q-4 0 -4 12t4 12 q24 0 84.5 -3t112.5 -3q34 0 80.5 3t75.5 3z" />
<glyph unicode="w" horiz-adv-x="1505" d="M1516 958q6 0 6 -12t-6 -12q-69 0 -118.5 -47.5t-94.5 -159.5l-285 -725q-3 -8 -22.5 -8t-22.5 8l-211 440l-187 -440q-3 -8 -22 -8t-23 8l-376 786q-41 86 -71.5 116t-84.5 30q-6 0 -6 12t6 12q27 0 86.5 -3t87.5 -3q50 0 111 3t71 3q6 0 6 -12t-6 -12q-27 0 -38 -10 t-6.5 -38t28.5 -77l289 -582l110 269l-141 292q-42 88 -66.5 117t-60.5 29q-5 0 -5 12t5 12q16 0 72 -3t88 -3q25 0 76 3t65 3q4 0 4 -12t-4 -12q-34 0 -34 -19t44 -106l68 -139l39 104q59 160 -19 160q-4 0 -4 12t4 12q11 0 50.5 -3t72.5 -3q34 0 71 3t64 3q6 0 6 -12 t-6 -12q-77 0 -116.5 -35t-83.5 -137l-56 -137l193 -394l186 500q35 98 24 150.5t-67 52.5q-4 0 -4 12t4 12q19 0 60.5 -3t74.5 -3q38 0 90.5 3t84.5 3z" />
<glyph unicode="x" horiz-adv-x="1083" d="M1069 25q6 0 6 -12.5t-6 -12.5q-19 0 -106.5 2t-106.5 2q-49 0 -116.5 -2t-90.5 -2q-6 0 -6 12.5t6 12.5q65 0 73.5 14t-26.5 65l-200 299l-146 -213q-51 -70 -36 -117.5t96 -47.5q4 0 4 -12.5t-4 -12.5q-29 0 -102 2t-124 2q-32 0 -77.5 -2t-73.5 -2q-5 0 -5 12.5 t5 12.5q129 0 260 178l176 241l-229 344q-52 78 -107.5 112t-101.5 34q-5 0 -5 12t5 12q21 0 64 -3t63 -3q48 0 160 3t135 3q5 0 5 -12t-5 -12q-65 0 -74.5 -15.5t24.5 -66.5l183 -270l123 186q32 49 40 86t-11.5 58.5t-67.5 21.5q-4 0 -4 12t4 12q29 0 92.5 -3t114.5 -3 q34 0 79 3t72 3q6 0 6 -12t-6 -12q-136 0 -264 -178l-152 -213l250 -373q52 -78 107 -111.5t100 -33.5z" />
<glyph unicode="y" horiz-adv-x="1046" d="M1055 958q6 0 6 -12t-6 -12q-59 0 -107 -43.5t-78 -128.5l-295 -760q-47 -130 -120 -231.5t-154 -141.5q-11 -6 -37.5 14t-40.5 50q-17 34 -18.5 71t12.5 39q109 17 187 61.5t124 137.5l-374 786q-41 86 -71.5 116t-84.5 30q-6 0 -6 12t6 12q30 0 95.5 -3t119.5 -3 q47 0 117.5 3t97.5 3q6 0 6 -12t-6 -12q-149 0 -88 -125l278 -571l201 536q64 160 -117 160q-4 0 -4 12t4 12q24 0 84.5 -3t112.5 -3q34 0 80.5 3t75.5 3z" />
<glyph unicode="z" horiz-adv-x="925" d="M82 27l534 886q5 11 4 14t-14 3q-153 0 -243.5 -22t-146 -70.5t-105.5 -143.5q-2 -4 -8.5 -4t-12 3t-4.5 7l80 320q2 7 16 2q8 -2 6 -6q-5 -36 17.5 -47t101.5 -11h506q9 0 14 -9t0 -17l-530 -881q-5 -11 -3.5 -14.5t13.5 -3.5h217q119 0 191.5 61.5t122.5 202.5 q2 4 12 3.5t10 -5.5l-24 -279q0 -7 -5.5 -13.5t-13.5 -6.5l-723 4q-9 0 -13 10t1 17z" />
<glyph unicode="{" horiz-adv-x="591" d="M66 610q-6 0 -6 13.5t6 13.5q34 5 59 34.5t39 70.5t22 102t10.5 115t2.5 124q0 89 5 149.5t19.5 107.5t35.5 73.5t58.5 43.5t82 22.5t112.5 5.5q8 0 8 -12.5t-8 -12.5q-60 0 -92.5 -56.5t-34.5 -160.5t-3.5 -150t-6 -116.5t-10 -98t-17.5 -72t-27.5 -62t-40.5 -43.5 t-55 -42t-73 -34q34 -15 60 -28.5t48 -32t38 -34.5t28.5 -42.5t21 -48t15 -60.5t9.5 -70t6 -86t4 -100t3 -119v-2q2 -104 34.5 -160.5t92.5 -56.5q8 0 8 -12.5t-8 -12.5q-68 0 -113.5 6t-82.5 23.5t-58 44t-35 74t-19 107.5t-5 149q0 72 -2.5 126t-10.5 115t-22 101.5 t-39 69.5t-59 34z" />
<glyph unicode="|" horiz-adv-x="344" d="M129 -293v1575q0 14 46 14t46 -14v-1575q0 -13 -46 -13t-46 13z" />
<glyph unicode="}" horiz-adv-x="579" d="M514 610q-34 -5 -59 -34t-39 -69.5t-22 -101.5t-10.5 -115t-2.5 -126q0 -89 -5 -149t-19 -107.5t-35 -74t-58 -44t-82.5 -23.5t-113.5 -6q-8 0 -8 12.5t8 12.5q60 0 92.5 56.5t34.5 160.5q7 280 21 366q19 119 83 179q44 41 129 78q-43 18 -73 34t-55 42t-40.5 43.5 t-27.5 62t-17.5 72t-10 98t-6 116.5t-3.5 150t-34.5 160.5t-92.5 56.5q-8 0 -8 12.5t8 12.5q68 0 112.5 -5.5t82 -22.5t58.5 -43.5t35.5 -73.5t19.5 -107.5t5 -149.5q0 -58 1.5 -104t6.5 -98.5t14 -91.5t23.5 -73.5t36.5 -54.5t51 -24q6 0 6 -13.5t-6 -13.5z" />
<glyph unicode="~" horiz-adv-x="925" d="M659 512q40 0 72 13.5t47.5 27.5t36.5 39q2 2 6 -0.5t7 -6.5t1 -7q-85 -117 -135 -156t-112 -39q-57 0 -156.5 37t-159.5 37q-20 0 -37 -3.5t-26.5 -5.5t-25.5 -13.5t-19 -14t-22.5 -21.5t-22.5 -22q-2 -2 -6.5 0.5t-7.5 7t-1 8.5q126 193 246 193q42 0 147.5 -37 t167.5 -37z" />
<glyph unicode="&#xa1;" horiz-adv-x="528" d="M270 748q52 0 82.5 -30t30.5 -83q0 -50 -30.5 -78.5t-82.5 -28.5t-81 28.5t-29 78.5q0 53 29 83t81 30zM393 -539q1 -7 -20.5 -13t-50.5 -8.5t-56 -2.5q-47 0 -89.5 6.5t-39.5 17.5q31 121 53 292t30.5 285.5t19.5 299.5q0 9 28.5 9t28.5 -9q9 -182 17 -298.5t29 -287 t50 -291.5z" />
<glyph unicode="&#xa2;" horiz-adv-x="1091" d="M975 287q5 7 14.5 5.5t9.5 -7.5l-20 -217q-2 -18 -6.5 -24t-22.5 -13q-160 -56 -327 -56h-7v-184q0 -13 -27.5 -13t-27.5 13v186q-107 8 -193.5 44.5t-141.5 87.5t-92 116.5t-52.5 129.5t-15.5 128q0 197 139.5 335.5t355.5 160.5v170q0 15 27.5 15t27.5 -15v-166h17 q78 0 166 -15.5t145 -43.5q23 -10 25 -35l12 -211q0 -6 -11 -7.5t-14 5.5q-122 259 -340 268v-928q12 -2 35 -2q112 0 189.5 65.5t134.5 207.5zM276 514q0 -111 28.5 -209t95 -176.5t161.5 -103.5v917q-133 -17 -209 -134t-76 -294z" />
<glyph unicode="&#xa3;" horiz-adv-x="884" d="M754 260q0 4 6 4.5t12 -1.5t6 -5q-18 -106 -18 -227q0 -17 -7 -24t-24 -7h-690q-5 0 -5 12t5 13q58 13 96 35t56 51t24 58t4 67q-5 102 -35 206h-90q-14 0 -14 28t14 28h72q-35 107 -35 176q0 81 30.5 142.5t84 97t118.5 52.5t140 17q98 0 184 -29q30 -12 33 -39l14 -210 q0 -9 -10.5 -9t-13.5 9q-24 55 -44.5 92.5t-50 74.5t-67 55.5t-82.5 18.5q-86 0 -124 -59t-38 -144q0 -42 9 -90t16.5 -73.5t25.5 -81.5h205q13 0 13 -28t-13 -28h-190q20 -75 20 -139q0 -76 -25.5 -123.5t-70.5 -85.5h219q130 0 173.5 30.5t66.5 135.5z" />
<glyph unicode="&#xa4;" horiz-adv-x="847" d="M750 135l-74 -67l-98 112q-80 -47 -177 -47q-78 0 -141 37l-94 -102l-60 61l91 94q-72 81 -72 191q0 109 74 180l-103 102l70 66l104 -115q74 39 162 39q82 0 154 -43l102 111l60 -58l-103 -102q70 -77 70 -182q0 -99 -68 -174zM440 178q61 0 97 50t36 141q0 110 -51 191 t-137 81q-57 0 -91 -47t-34 -137q0 -69 18 -130t60.5 -105t101.5 -44z" />
<glyph unicode="&#xa5;" horiz-adv-x="1009" d="M1001 958q5 0 5 -12t-5 -12q-127 0 -235 -184l-158 -275v-39h195q13 0 13 -24.5t-13 -24.5h-195v-90h195q13 0 13 -24.5t-13 -24.5h-195v-82q0 -90 27.5 -115.5t130.5 -25.5q6 0 6 -12.5t-6 -12.5q-31 0 -114.5 2t-137.5 2q-47 0 -133 -2t-119 -2q-6 0 -6 12.5t6 12.5 q102 0 132 26t30 115v82h-201q-13 0 -13 24.5t13 24.5h201v90h-201q-13 0 -13 24.5t13 24.5h201v2l-227 350q-51 79 -95 112.5t-96 33.5q-4 0 -4 12t4 12q18 0 75 -3t75 -3q53 0 163.5 3t137.5 3q5 0 5 -12t-5 -12q-145 0 -74 -107l203 -311l129 236q43 76 26 129t-94 53 q-5 0 -5 12t5 12q34 0 106 -3t132 -3q25 0 60 3t56 3z" />
<glyph unicode="&#xa6;" horiz-adv-x="344" d="M129 631v651q0 14 46 14t46 -14v-651q0 -15 -46 -15t-46 15zM129 -293v629q0 14 46 14t46 -14v-629q0 -13 -46 -13t-46 13z" />
<glyph unicode="&#xa7;" horiz-adv-x="966" d="M705 139q83 -83 83 -186q0 -88 -49.5 -150t-123 -89t-160.5 -27q-107 0 -179 37q-22 15 -22 34l-16 228q0 4 11 4t13 -4q9 -24 23.5 -53.5t39.5 -65.5t53.5 -65t67.5 -48.5t78 -19.5q52 0 83.5 35t31.5 106q0 62 -26.5 112.5t-68.5 86.5t-93 69.5t-101.5 69t-92.5 76.5 t-68.5 100.5t-26.5 132.5q0 74 31.5 135.5t117.5 135.5q-82 79 -82 184q0 87 50 149t123.5 89.5t160.5 27.5q108 0 178 -39q23 -12 23 -33l16 -227q0 -4 -11 -4t-13 4q-13 33 -34 70t-54 81t-79 72.5t-95 28.5q-52 0 -83.5 -35t-31.5 -106q0 -62 26 -112.5t68 -86.5 t92.5 -69.5t101.5 -69.5t93 -77t68 -101t26 -133t-31.5 -134t-117.5 -133zM297 614q0 -74 24.5 -134t69.5 -104t89 -76t104.5 -71t93.5 -67q39 59 39 153q0 74 -24.5 134t-69.5 104.5t-88.5 76.5t-103.5 71t-93 67q-41 -58 -41 -154z" />
<glyph unicode="&#xa8;" horiz-adv-x="659" d="M154 961q-50 0 -77.5 26.5t-27.5 75.5q0 46 28 72t77 26q46 0 72 -26t26 -72q0 -49 -26 -75.5t-72 -26.5zM510 961q-48 0 -75 26.5t-27 75.5q0 45 27 70.5t75 25.5q47 0 72.5 -25t25.5 -71q0 -49 -25.5 -75.5t-72.5 -26.5z" />
<glyph unicode="&#xa9;" horiz-adv-x="1441" d="M741 -156q-123 0 -235.5 40t-201.5 114t-142 190t-53 256q0 139 58.5 261t155 204.5t222 130t258.5 47.5q119 0 220 -39t168 -105t104.5 -152t37.5 -181q0 -91 -39.5 -176.5t-108 -150.5t-168 -104.5t-212.5 -39.5q-97 0 -171.5 28t-117 75.5t-63.5 102.5t-21 116 q0 79 31.5 145.5t83 109t115 66t129.5 23.5q83 0 146.5 -30.5t63.5 -86.5q0 -35 -19.5 -56.5t-57.5 -21.5q-47 0 -84 68q-17 28 -27 41.5t-33.5 28t-52.5 14.5q-71 0 -99 -59t-28 -177q0 -69 16.5 -127t51.5 -104t94.5 -72t138.5 -26q61 0 117 23.5t100.5 66.5t71.5 110.5 t27 149.5q0 134 -63 247t-174.5 178.5t-246.5 65.5q-116 0 -210.5 -43t-155.5 -117.5t-94 -172.5t-33 -209q0 -179 77 -313t205.5 -201.5t288.5 -67.5q110 0 199 22t188 80q3 2 6.5 -1.5t4.5 -8t-1 -6.5q-112 -89 -225.5 -122.5t-241.5 -33.5z" />
<glyph unicode="&#xaa;" horiz-adv-x="583" d="M559 834q5 2 9.5 -2t5 -9t-2.5 -8l-139 -65q-24 -11 -47.5 10t-30.5 65l-67 -37q-43 -24 -70 -32t-61 -8q-44 0 -70.5 22.5t-26.5 56.5q0 35 22 59t77 44l194 67v105q0 50 -6 82t-18 46t-24 18.5t-30 4.5q-31 0 -51 -29t-26 -75q-14 -70 -68 -70q-32 0 -51 18t-19 46 q0 35 48.5 70t111.5 56t111 21q61 0 99 -37t38 -110v-240q0 -69 19 -82t73 13zM293 819l59 31v8v115l-104 -39q-31 -13 -44.5 -28t-13.5 -42q0 -26 15.5 -40.5t40.5 -14.5q30 0 47 10zM539 649q9 0 9 -33.5t-9 -33.5h-461q-6 0 -8 17t-0.5 33.5t6.5 16.5h463z" />
<glyph unicode="&#xab;" horiz-adv-x="960" d="M489 154l-376 307q-9 7 -9 21.5t9 23.5l376 305q6 8 14 -2q4 -5 1 -8l-209 -318l209 -317q2 -3 -0.5 -7.5t-7 -6t-7.5 1.5zM827 154l-378 307q-9 7 -9 21.5t9 23.5l378 305q2 3 6.5 2t7.5 -5t1 -7l-209 -318l209 -317q2 -7 -7 -13q-6 -2 -8 1z" />
<glyph unicode="&#xac;" horiz-adv-x="808" d="M745 625v-396q0 -6 -23 -8t-46 -0.5t-23 6.5v308h-583q-6 0 -8 22.5t-0.5 45t6.5 22.5h677z" />
<glyph unicode="&#xad;" horiz-adv-x="577" d="M66 408q-6 -1 -8.5 24.5t-1.5 52t5 27.5l439 72q6 1 8 -25t0 -52.5t-8 -27.5z" />
<glyph unicode="&#xae;" horiz-adv-x="1478" d="M782 1065q132 0 243.5 -43.5t187 -119t117.5 -178t42 -220.5q0 -175 -87 -322.5t-237.5 -233t-330.5 -85.5q-114 0 -223 40.5t-194.5 113.5t-138 184.5t-52.5 242.5q0 183 95 327t247.5 219t330.5 75zM788 -82q223 0 344 143t121 377q0 264 -152 421t-394 157 q-121 0 -216 -41t-153 -111.5t-87.5 -160t-29.5 -191.5q0 -131 46.5 -244t124.5 -188.5t180.5 -118.5t215.5 -43zM1122 156q3 -2 3 -9.5t-3 -7.5h-188q-33 0 -191 330q-43 -6 -90 -6v-209q0 -61 15.5 -75.5t76.5 -14.5q5 0 5 -12.5t-5 -12.5q-18 0 -66.5 1t-80.5 1 q-26 0 -78.5 -1t-68.5 -1q-3 0 -3 12.5t3 12.5q53 0 65 14.5t12 75.5v440q0 59 -13 75.5t-64 16.5q-3 0 -3 12.5t3 12.5q19 0 70 -2t77 -2q25 0 85 4t83 4q100 0 149.5 -33.5t49.5 -105.5q0 -118 -113 -174q80 -166 136.5 -240t133.5 -106zM653 496q101 -9 142 21t41 116 q0 155 -105 155q-48 0 -63 -15.5t-15 -82.5v-194z" />
<glyph unicode="&#xaf;" horiz-adv-x="706" d="M96 977q-19 0 -19 35t19 35h514q19 0 19 -35t-19 -35h-514z" />
<glyph unicode="&#xb0;" horiz-adv-x="679" d="M342 764q-126 0 -204.5 76t-78.5 190q0 108 79 184t204 76t202 -75.5t77 -188.5q0 -112 -77.5 -187t-201.5 -75zM356 791q32 0 54.5 11t35.5 28.5t20 47.5t9 60t2 74q0 252 -147 252q-51 0 -79.5 -31.5t-37 -77.5t-8.5 -119q0 -117 33 -181t118 -64z" />
<glyph unicode="&#xb1;" horiz-adv-x="815" d="M864 711q9 0 9 -47.5t-9 -47.5h-508v-389q0 -6 -23.5 -8t-47 -0.5t-23.5 6.5v391h-192q-6 0 -8 24t-0.5 47.5t6.5 23.5h194v311q0 9 47 9t47 -9v-311h508zM745 133q9 0 9 -41t-9 -41h-675q-6 0 -8 20.5t-0.5 41t6.5 20.5h677z" />
<glyph unicode="&#xb2;" horiz-adv-x="516" d="M49 838q17 68 49 127t65.5 99t64.5 78.5t51 83.5t20 97q0 60 -24.5 89.5t-65.5 29.5q-47 0 -82 -31t-49 -78q-2 -9 -16 -4q-10 3 -7 8q47 158 203 158q86 0 130 -41.5t44 -107.5q0 -48 -26.5 -94t-66.5 -83.5t-81.5 -72.5t-78.5 -75.5t-50 -78.5q0 -8 6 -8 q129 0 187.5 6.5t83 25t28.5 60.5q0 3 10.5 3t10.5 -3l-2 -190q0 -3 -3 -7t-6 -4h-389q-5 0 -7 4.5t1 8.5z" />
<glyph unicode="&#xb3;" horiz-adv-x="514" d="M317 1192q66 -22 105 -67.5t39 -102.5q0 -76 -64 -142.5t-170 -66.5q-79 0 -120 36.5t-62 104.5q-1 5 4.5 8t11.5 3t7 -4q17 -47 53 -73t82 -26q49 0 86 36t37 116q0 98 -47 153q-20 -10 -64 -28q-6 -2 -11.5 1.5t-6.5 8.5t2 8q46 29 73 76.5t27 97.5q0 48 -27.5 77.5 t-68.5 29.5q-43 0 -77 -30t-46 -75q-2 -9 -16 -4q-10 3 -7 8q43 158 197 158q85 0 132.5 -43.5t47.5 -101.5q0 -82 -117 -158z" />
<glyph unicode="&#xb4;" horiz-adv-x="563" d="M57 901q-6 -3 -10 2t-3.5 10.5t3.5 8.5q49 30 96.5 64.5t103 77.5t83.5 64q17 12 114 -24q80 -30 75 -42l-7 -3q-218 -54 -455 -158z" />
<glyph unicode="&#xb6;" horiz-adv-x="1177" d="M659 0q-156 0 -281 61t-196 171t-71 247q0 202 156.5 340.5t391.5 138.5q23 0 93 -3t98 -3q47 0 126 3t109 3q5 0 5 -12t-5 -12q-88 0 -135 -43t-47 -123v-580q0 -78 47 -120.5t135 -42.5q5 0 5 -12.5t-5 -12.5q-30 0 -109 2t-126 2q-28 0 -98 -2t-93 -2zM731 94 q0 -27 19 -38t38 0.5t19 39.5v766q0 28 -19 39.5t-38 0t-19 -39.5v-768z" />
<glyph unicode="&#xb7;" horiz-adv-x="417" d="M211 371q-53 0 -83 30t-30 82q0 50 30.5 78.5t82.5 28.5t81.5 -28.5t29.5 -78.5q0 -53 -29.5 -82.5t-81.5 -29.5z" />
<glyph unicode="&#xb8;" horiz-adv-x="475" d="M244 -4q-23 -79 -10 -117t77 -76q53 -31 83 -66t30 -91q0 -37 -13.5 -72.5t-40.5 -67t-74.5 -50.5t-109.5 -19q-145 0 -145 92q0 28 22 50t52 22q34 0 52 -18.5t23 -41t22 -41t50 -18.5q53 0 53 59q0 54 -38 96.5t-134 96.5q-19 9 -21 19t9 38q43 108 78 207z" />
<glyph unicode="&#xb9;" horiz-adv-x="536" d="M84 825q-6 0 -6 12.5t6 12.5q89 0 110 22t21 119v242q0 48 -0.5 71t-6 45.5t-12.5 28t-25.5 5.5t-39.5 -8t-59 -25q-4 -2 -9 3t-6 10.5t2 8.5l265 119q8 4 14 -1.5t6 -12.5v-486q0 -97 19.5 -119t107.5 -22q5 0 5 -12.5t-5 -12.5q-24 0 -87 3t-101 3q-40 0 -107.5 -3 t-91.5 -3z" />
<glyph unicode="&#xba;" horiz-adv-x="659" d="M319 735q-117 0 -188.5 83t-71.5 202q0 66 26 119.5t68.5 85t91.5 48.5t99 17q118 0 188 -82t70 -194q0 -116 -84 -197.5t-199 -81.5zM352 766q56 0 88.5 56.5t32.5 154.5q0 118 -47.5 199t-120.5 81q-56 0 -86.5 -51.5t-30.5 -146.5q0 -119 47 -206t117 -87zM84 582 q-6 0 -8.5 17t-1 33.5t5.5 16.5h500q8 0 8 -33.5t-8 -33.5h-496z" />
<glyph unicode="&#xbb;" horiz-adv-x="960" d="M133 811l377 -305q9 -9 9 -23.5t-9 -21.5l-377 -307q-3 -4 -7.5 -2.5t-6.5 6t0 8.5l209 315l-209 320q-2 4 4 9.5t10 0.5zM469 811l379 -305q9 -9 9 -23.5t-9 -21.5l-379 -307q-4 -7 -11 1q-5 6 -3 11l211 315l-211 320q-2 5 6 11q6 4 8 -1z" />
<glyph unicode="&#xbc;" horiz-adv-x="1239" d="M471 655q5 0 5 -11t-5 -11q-24 0 -87 2t-101 2q-40 0 -107.5 -2t-91.5 -2q-6 0 -6 11t6 11q89 0 110 22.5t21 119.5v243q0 48 -0.5 71t-6 45.5t-12.5 28t-25.5 5.5t-39.5 -8t-59 -25q-4 -2 -9 3t-6 11t2 9l265 118q8 3 14 -2.5t6 -11.5v-487q0 -97 20 -119.5t107 -22.5z M895 1288q4 7 33.5 -6t27.5 -18l-571 -1266q-2 -3 -17.5 2.5t-30 14t-13.5 12.5zM1192 23q2 0 2 -12.5t-2 -12.5q-20 0 -63.5 1t-73.5 1q-36 0 -94 -1t-80 -1q-3 0 -3 12.5t3 12.5q68 0 86 10t18 51v104q-180 5 -258 5q-6 0 -10 7t0 13l334 444q7 9 31 7.5t24 -9.5v-424 q15 1 44 2.5t42 2.5q4 0 4 -28t-4 -28q-15 1 -43 2t-43 2v-100q0 -40 13 -50.5t73 -10.5zM797 223q42 0 104 1t84 1v279l-194 -275q-3 -6 6 -6z" />
<glyph unicode="&#xbd;" horiz-adv-x="1251" d="M84 633q-6 0 -6 11t6 11q89 0 110 22.5t21 119.5v243q0 48 -0.5 71t-6 45.5t-12.5 28t-25.5 5.5t-39.5 -8t-59 -25q-4 -2 -9 3t-6 11t2 9l265 118q8 3 14 -2.5t6 -11.5v-487q0 -97 20 -119.5t107 -22.5q5 0 5 -11t-5 -11q-24 0 -87 2t-101 2q-40 0 -107.5 -2t-91.5 -2z M385 -2q-2 -3 -17.5 2.5t-30 14t-13.5 12.5l571 1261q4 7 33.5 -6t27.5 -18zM784 12q17 68 49 127t65.5 99t64.5 79t51 84t20 97q0 60 -24.5 88t-65.5 28q-48 0 -82.5 -30t-48.5 -76q-2 -9 -16 -4q-8 3 -6 8q46 156 202 156q86 0 130 -41t44 -107q0 -48 -26.5 -94 t-66.5 -83.5t-81.5 -72t-78.5 -75t-50 -78.5q0 -8 6 -8q66 0 107.5 1t77.5 4.5t54.5 9.5t32.5 16.5t19.5 24t7.5 34.5q0 5 10.5 5t10.5 -5l-2 -189q0 -10 -8 -10h-389q-13 0 -7 12z" />
<glyph unicode="&#xbe;" horiz-adv-x="1216" d="M461 827q0 -74 -64 -140t-170 -66q-79 0 -120 36.5t-62 104.5q-1 5 4.5 8t11.5 2t7 -6q17 -46 53 -72t82 -26q50 0 86.5 36t36.5 117q0 99 -50 154q-23 -14 -61 -29q-10 -5 -17 7q-4 8 1 10q46 31 73 78t27 96q0 48 -27.5 77t-68.5 29q-43 0 -77 -29t-46 -73 q-2 -9 -16 -5q-10 3 -7 9q42 155 197 155q85 0 132.5 -43t47.5 -100q0 -83 -119 -160q67 -22 106.5 -67t39.5 -103zM872 1288q4 7 34 -6t28 -18l-572 -1266q-2 -3 -17.5 2.5t-30 14t-13.5 12.5zM1169 23q1 0 1 -12.5t-1 -12.5q-20 0 -63.5 1t-73.5 1q-36 0 -94 -1t-80 -1 q-3 0 -3 12.5t3 12.5q69 0 87 10t18 51v104q-180 5 -258 5q-6 0 -10.5 7t-0.5 13l334 444q8 9 31.5 7.5t23.5 -9.5v-424q15 1 44 2.5t42 2.5q5 0 5 -28t-5 -28q-14 1 -43 2t-43 2v-100q0 -40 13 -50.5t73 -10.5zM774 223q42 0 104.5 1t84.5 1v279l-195 -275q-3 -6 6 -6z" />
<glyph unicode="&#xbf;" horiz-adv-x="669" d="M344 739q53 0 83 -30t30 -82q0 -50 -30.5 -78.5t-82.5 -28.5t-81.5 28.5t-29.5 78.5q0 53 29.5 82.5t81.5 29.5zM336 -528q36 0 49.5 24t17.5 64q3 24 7.5 40.5t15 38.5t31.5 34t51 12q47 0 69.5 -26t22.5 -62q0 -68 -77 -114t-189 -46q-128 0 -215.5 63.5t-87.5 180.5 q0 34 8.5 64.5t19.5 51.5t33.5 46.5t36.5 38.5t44 38.5t42 36.5q66 60 95.5 119.5t29.5 132.5q0 40 -12 108q-1 5 6 8.5t14 3.5t10 -3q24 -55 39 -126.5t15 -121.5q0 -53 -19 -95.5t-46 -73t-53.5 -62.5t-45.5 -81t-19 -112q0 -79 29 -130.5t78 -51.5z" />
<glyph unicode="&#xc0;" horiz-adv-x="1456" d="M465 1548q-22 4 27 27q75 36 134 44q18 3 23 -1q23 -17 82 -63t105 -79.5t94 -64.5q4 -3 4.5 -8.5t-4 -10t-10.5 -1.5q-225 100 -455 157zM1456 25q9 0 9 -12.5t-9 -12.5q-40 0 -125 4t-125 4q-47 0 -118 -4t-111 -4q-9 0 -9 12.5t9 12.5q93 0 110 33t-30 128l-221 449 h-371l-158 -354q-50 -125 -3.5 -190.5t171.5 -65.5q9 0 9 -12.5t-9 -12.5q-37 0 -111.5 4t-130.5 4q-53 0 -124 -4t-113 -4q-9 0 -9 12.5t9 12.5q83 0 135 54.5t127 221.5l438 991q2 5 17 5.5t18 -5.5l500 -1011q73 -147 121 -201.5t104 -54.5zM487 688h322l-168 342z" />
<glyph unicode="&#xc1;" horiz-adv-x="1456" d="M518 1391q-4 -2 -7.5 0t-5 6t-1 8.5t3.5 5.5q49 30 96.5 65t102.5 78t84 64q17 12 114 -25q80 -30 75 -42q-1 -2 -7 -3q-223 -55 -455 -157zM1456 25q9 0 9 -12.5t-9 -12.5q-40 0 -125 4t-125 4q-47 0 -118 -4t-111 -4q-9 0 -9 12.5t9 12.5q93 0 110 33t-30 128l-221 449 h-371l-158 -354q-50 -125 -3.5 -190.5t171.5 -65.5q9 0 9 -12.5t-9 -12.5q-37 0 -111.5 4t-130.5 4q-53 0 -124 -4t-113 -4q-9 0 -9 12.5t9 12.5q83 0 135 54.5t127 221.5l438 991q2 5 17 5.5t18 -5.5l500 -1011q73 -147 121 -201.5t104 -54.5zM487 688h322l-168 342z" />
<glyph unicode="&#xc2;" horiz-adv-x="1456" d="M494 1327q-2 -1 -6.5 2t-6.5 6.5t0 5.5l211 226q9 7 23.5 7t23.5 -7l209 -226q3 -2 2 -6t-5 -7t-7 -1l-221 92zM1456 25q9 0 9 -12.5t-9 -12.5q-40 0 -125 4t-125 4q-47 0 -118 -4t-111 -4q-9 0 -9 12.5t9 12.5q93 0 110 33t-30 128l-221 449h-371l-158 -354 q-50 -125 -3.5 -190.5t171.5 -65.5q9 0 9 -12.5t-9 -12.5q-37 0 -111.5 4t-130.5 4q-53 0 -124 -4t-113 -4q-9 0 -9 12.5t9 12.5q83 0 135 54.5t127 221.5l438 991q2 5 17 5.5t18 -5.5l500 -1011q73 -147 121 -201.5t104 -54.5zM487 688h322l-168 342z" />
<glyph unicode="&#xc3;" horiz-adv-x="1456" d="M467 1427q-2 -2 -6 0.5t-7 7t-1 7.5q89 153 178 153q25 0 112.5 -25.5t137.5 -25.5q34 0 55.5 12.5t48.5 42.5q2 2 6 0.5t7 -6t1 -8.5q-56 -90 -91 -120.5t-77 -30.5q-38 0 -124.5 24.5t-135.5 24.5q-12 0 -22 -1t-19.5 -5t-14.5 -5.5t-13.5 -9t-10.5 -9.5t-12 -13 t-12 -13zM1456 25q9 0 9 -12.5t-9 -12.5q-40 0 -125 4t-125 4q-47 0 -118 -4t-111 -4q-9 0 -9 12.5t9 12.5q93 0 110 33t-30 128l-221 449h-371l-158 -354q-50 -125 -3.5 -190.5t171.5 -65.5q9 0 9 -12.5t-9 -12.5q-37 0 -111.5 4t-130.5 4q-53 0 -124 -4t-113 -4 q-9 0 -9 12.5t9 12.5q83 0 135 54.5t127 221.5l438 991q2 5 17 5.5t18 -5.5l500 -1011q73 -147 121 -201.5t104 -54.5zM487 688h322l-168 342z" />
<glyph unicode="&#xc4;" horiz-adv-x="1456" d="M541 1450q-50 0 -77.5 26.5t-27.5 75.5q0 46 28 72.5t77 26.5q46 0 72 -26.5t26 -72.5q0 -49 -26 -75.5t-72 -26.5zM897 1450q-48 0 -75 26.5t-27 75.5q0 46 27.5 71.5t74.5 25.5t72.5 -25.5t25.5 -71.5q0 -49 -25.5 -75.5t-72.5 -26.5zM1456 25q9 0 9 -12.5t-9 -12.5 q-40 0 -125 4t-125 4q-47 0 -118 -4t-111 -4q-9 0 -9 12.5t9 12.5q93 0 110 33t-30 128l-221 449h-371l-158 -354q-50 -125 -3.5 -190.5t171.5 -65.5q9 0 9 -12.5t-9 -12.5q-37 0 -111.5 4t-130.5 4q-53 0 -124 -4t-113 -4q-9 0 -9 12.5t9 12.5q83 0 135 54.5t127 221.5 l438 991q2 5 17 5.5t18 -5.5l500 -1011q73 -147 121 -201.5t104 -54.5zM487 688h322l-168 342z" />
<glyph unicode="&#xc5;" horiz-adv-x="1456" d="M702 1354q-94 0 -149 48.5t-55 115.5q0 73 69 115t154 42t145 -47.5t60 -116.5q0 -71 -68 -114t-156 -43zM680 1649q-53 0 -53 -90q0 -69 29 -124t77 -55q32 0 47 23t15 74q0 69 -34 120.5t-81 51.5zM1456 25q9 0 9 -12.5t-9 -12.5q-40 0 -125 4t-125 4q-47 0 -118 -4 t-111 -4q-9 0 -9 12.5t9 12.5q93 0 110 33t-30 128l-221 449h-371l-158 -354q-50 -125 -3.5 -190.5t171.5 -65.5q9 0 9 -12.5t-9 -12.5q-37 0 -111.5 4t-130.5 4q-53 0 -124 -4t-113 -4q-9 0 -9 12.5t9 12.5q83 0 135 54.5t127 221.5l438 991q2 5 17 5.5t18 -5.5l500 -1011 q73 -147 121 -201.5t104 -54.5zM487 688h322l-168 342z" />
<glyph unicode="&#xc6;" horiz-adv-x="1808" d="M1690 319q2 4 13 2.5t11 -6.5q-18 -140 -18 -284q0 -17 -7 -24t-26 -7h-872q-6 0 -6 12.5t6 12.5q98 0 126.5 26t28.5 115v473h-323l-238 -365q-75 -118 -50 -183.5t148 -65.5q9 0 9 -12.5t-9 -12.5q-44 0 -128 4t-148 4q-49 0 -113 -4t-102 -4q-9 0 -9 12.5t9 12.5 q79 0 152.5 58t158.5 187l600 906q34 48 23 61q-12 17 -119 18h-35q-6 0 -6 12.5t6 12.5h856q19 0 19 -18l6 -267q0 -5 -11.5 -5.5t-13.5 3.5q-15 85 -92.5 159.5t-175.5 74.5h-94q-74 0 -103.5 -26t-29.5 -89v-420h190q223 0 223 152q0 6 12.5 6t12.5 -6q0 -48 -1 -102 t-1 -76q0 -33 2 -98t2 -103q0 -6 -12.5 -6t-12.5 6q0 174 -229 174h-186v-465q0 -67 25 -94t89 -27h111q108 0 205.5 78t126.5 188zM657 692h289v445z" />
<glyph unicode="&#xc7;" horiz-adv-x="1370" d="M1257 358q3 7 14 5t11 -7l-31 -262q-3 -19 -5.5 -26t-7.5 -12t-17 -9q-182 -72 -381 -72h-37q-17 -68 -2 -102t76 -70q52 -30 82 -65.5t30 -91.5q0 -82 -59.5 -145.5t-177.5 -63.5q-146 0 -146 92q0 28 22 50t52 22q34 0 52 -18.5t23 -41t22 -41t50 -18.5q54 0 54 59 q0 54 -38 96.5t-134 96.5q-19 9 -21 19t8 38q48 118 72 186q-138 10 -251.5 54.5t-189.5 110.5t-128 151t-75.5 174t-23.5 180q0 145 63 269.5t168 208t242 131t285 47.5q92 0 191 -16.5t157 -43.5q18 -9 23.5 -18t7.5 -31l25 -266q0 -5 -10 -7t-13 5q-60 159 -179.5 243 t-281.5 84q-213 0 -333.5 -150.5t-120.5 -400.5q0 -189 66.5 -346.5t184.5 -249.5t263 -92q276 0 419 344z" />
<glyph unicode="&#xc8;" horiz-adv-x="1120" d="M354 1548q-22 4 27 27q75 36 135 44q18 3 23 -1q25 -19 82 -63.5t104 -79t94 -64.5q4 -3 4.5 -8.5t-4 -10t-10.5 -1.5q-225 100 -455 157zM1001 319q1 4 13 2.5t12 -6.5q-20 -156 -20 -284q0 -18 -6.5 -24.5t-24.5 -6.5h-889q-6 0 -6 12.5t6 12.5q99 0 127.5 25.5 t28.5 115.5v948q0 88 -28.5 114.5t-127.5 26.5q-6 0 -6 12.5t6 12.5h854q18 0 18 -18l5 -267q0 -3 -5.5 -4.5t-11.5 -1t-6 3.5q-52 234 -287 234h-82q-75 0 -105 -27t-30 -92v-416h199q223 0 223 152q0 6 12.5 6t12.5 -6q0 -48 -2 -102t-2 -76q0 -33 3 -98t3 -103 q0 -6 -12.5 -6t-12.5 6q0 174 -229 174h-195v-465q0 -68 25.5 -94.5t91.5 -26.5h100q275 0 348 266z" />
<glyph unicode="&#xc9;" horiz-adv-x="1120" d="M408 1391q-6 -3 -10 1.5t-4 10t3 8.5q49 30 96.5 65t102.5 78t84 64q17 12 114 -25q80 -30 75 -42q-1 -2 -7 -3q-220 -55 -454 -157zM1001 319q1 4 13 2.5t12 -6.5q-20 -156 -20 -284q0 -18 -6.5 -24.5t-24.5 -6.5h-889q-6 0 -6 12.5t6 12.5q99 0 127.5 25.5t28.5 115.5 v948q0 88 -28.5 114.5t-127.5 26.5q-6 0 -6 12.5t6 12.5h854q18 0 18 -18l5 -267q0 -3 -5.5 -4.5t-11.5 -1t-6 3.5q-52 234 -287 234h-82q-75 0 -105 -27t-30 -92v-416h199q223 0 223 152q0 6 12.5 6t12.5 -6q0 -48 -2 -102t-2 -76q0 -33 3 -98t3 -103q0 -6 -12.5 -6 t-12.5 6q0 174 -229 174h-195v-465q0 -68 25.5 -94.5t91.5 -26.5h100q275 0 348 266z" />
<glyph unicode="&#xca;" horiz-adv-x="1120" d="M385 1417q-2 -1 -6 2t-6 7t0 6l211 225q9 7 23.5 7t23.5 -7l209 -225q3 -2 2 -6.5t-5.5 -7.5t-7.5 -1l-221 92zM1001 319q1 4 13 2.5t12 -6.5q-20 -156 -20 -284q0 -18 -6.5 -24.5t-24.5 -6.5h-889q-6 0 -6 12.5t6 12.5q99 0 127.5 25.5t28.5 115.5v948q0 88 -28.5 114.5 t-127.5 26.5q-6 0 -6 12.5t6 12.5h854q18 0 18 -18l5 -267q0 -3 -5.5 -4.5t-11.5 -1t-6 3.5q-52 234 -287 234h-82q-75 0 -105 -27t-30 -92v-416h199q223 0 223 152q0 6 12.5 6t12.5 -6q0 -48 -2 -102t-2 -76q0 -33 3 -98t3 -103q0 -6 -12.5 -6t-12.5 6q0 174 -229 174h-195 v-465q0 -68 25.5 -94.5t91.5 -26.5h100q275 0 348 266z" />
<glyph unicode="&#xcb;" horiz-adv-x="1120" d="M430 1450q-50 0 -77 26.5t-27 75.5q0 46 27.5 72.5t76.5 26.5q46 0 72 -26.5t26 -72.5q0 -49 -26 -75.5t-72 -26.5zM786 1450q-48 0 -75 26.5t-27 75.5q0 46 27.5 71.5t74.5 25.5t73 -25.5t26 -71.5q0 -49 -26 -75.5t-73 -26.5zM1001 319q1 4 13 2.5t12 -6.5 q-20 -156 -20 -284q0 -18 -6.5 -24.5t-24.5 -6.5h-889q-6 0 -6 12.5t6 12.5q99 0 127.5 25.5t28.5 115.5v948q0 88 -28.5 114.5t-127.5 26.5q-6 0 -6 12.5t6 12.5h854q18 0 18 -18l5 -267q0 -3 -5.5 -4.5t-11.5 -1t-6 3.5q-52 234 -287 234h-82q-75 0 -105 -27t-30 -92v-416 h199q223 0 223 152q0 6 12.5 6t12.5 -6q0 -48 -2 -102t-2 -76q0 -33 3 -98t3 -103q0 -6 -12.5 -6t-12.5 6q0 174 -229 174h-195v-465q0 -68 25.5 -94.5t91.5 -26.5h100q275 0 348 266z" />
<glyph unicode="&#xcc;" horiz-adv-x="692" d="M549 1391q-225 100 -455 157q-22 4 27 27q75 36 135 44q18 3 23 -1q25 -19 82 -63.5t104 -79t94 -64.5q4 -3 4.5 -8.5t-4 -10t-10.5 -1.5zM446 166q0 -90 27.5 -115.5t128.5 -25.5q4 0 4 -12.5t-4 -12.5q-32 0 -117.5 2t-140.5 2q-51 0 -136.5 -2t-117.5 -2q-6 0 -6 12.5 t6 12.5q100 0 129 26t29 115v948q0 88 -29.5 114.5t-128.5 26.5q-6 0 -6 12.5t6 12.5q32 0 117.5 -3t136.5 -3q55 0 141.5 3t116.5 3q4 0 4 -12.5t-4 -12.5q-98 0 -127 -28t-29 -117v-944z" />
<glyph unicode="&#xcd;" horiz-adv-x="692" d="M147 1391q-9 -4 -13 6.5t3 13.5q49 30 96.5 65t102.5 78t84 64q17 12 114 -25q80 -30 75 -42q-1 -2 -7 -3q-223 -55 -455 -157zM446 166q0 -90 27.5 -115.5t128.5 -25.5q4 0 4 -12.5t-4 -12.5q-32 0 -117.5 2t-140.5 2q-51 0 -136.5 -2t-117.5 -2q-6 0 -6 12.5t6 12.5 q100 0 129 26t29 115v948q0 88 -29.5 114.5t-128.5 26.5q-6 0 -6 12.5t6 12.5q32 0 117.5 -3t136.5 -3q55 0 141.5 3t116.5 3q4 0 4 -12.5t-4 -12.5q-98 0 -127 -28t-29 -117v-944z" />
<glyph unicode="&#xce;" horiz-adv-x="692" d="M113 1432l211 225q9 7 23.5 7t23.5 -7l209 -225q3 -2 2 -6.5t-5.5 -7.5t-7.5 -1l-221 92l-223 -92q-2 -1 -6 2t-6 7t0 6zM446 166q0 -90 27.5 -115.5t128.5 -25.5q4 0 4 -12.5t-4 -12.5q-32 0 -117.5 2t-140.5 2q-51 0 -136.5 -2t-117.5 -2q-6 0 -6 12.5t6 12.5 q100 0 129 26t29 115v948q0 88 -29.5 114.5t-128.5 26.5q-6 0 -6 12.5t6 12.5q32 0 117.5 -3t136.5 -3q55 0 141.5 3t116.5 3q4 0 4 -12.5t-4 -12.5q-98 0 -127 -28t-29 -117v-944z" />
<glyph unicode="&#xcf;" horiz-adv-x="692" d="M195 1450q-48 0 -76.5 26.5t-28.5 75.5q0 45 28.5 72t76.5 27q47 0 73.5 -26.5t26.5 -72.5q0 -49 -26 -75.5t-74 -26.5zM500 1450q-50 0 -76.5 26.5t-26.5 75.5q0 46 27 71.5t76 25.5q46 0 72 -25.5t26 -71.5q0 -49 -26 -75.5t-72 -26.5zM446 166q0 -90 27.5 -115.5 t128.5 -25.5q4 0 4 -12.5t-4 -12.5q-32 0 -117.5 2t-140.5 2q-51 0 -136.5 -2t-117.5 -2q-6 0 -6 12.5t6 12.5q100 0 129 26t29 115v948q0 88 -29.5 114.5t-128.5 26.5q-6 0 -6 12.5t6 12.5q32 0 117.5 -3t136.5 -3q55 0 141.5 3t116.5 3q4 0 4 -12.5t-4 -12.5 q-98 0 -127 -28t-29 -117v-944z" />
<glyph unicode="&#xd0;" horiz-adv-x="1435" d="M623 1284q157 0 291 -48t225 -131t142.5 -197.5t51.5 -245.5q0 -150 -54.5 -277t-147 -212.5t-216.5 -133t-262 -47.5q-41 0 -160.5 6t-173.5 6q-50 0 -135.5 -2t-117.5 -2q-6 0 -6 12.5t6 12.5q100 0 128.5 26t28.5 115v444h-114q-9 0 -9 27t9 27h114v450q0 89 -28 115 t-127 26q-4 0 -4 12.5t4 12.5q32 0 116.5 -3t134.5 -3q51 0 158.5 5t145.5 5zM631 33q217 0 350 153.5t133 429.5q0 176 -56.5 318t-165 225.5t-249.5 83.5q-129 0 -176 -24.5t-47 -108.5v-446h276q9 0 9 -27t-9 -27h-276v-422q0 -84 43 -119.5t168 -35.5z" />
<glyph unicode="&#xd1;" horiz-adv-x="1499" d="M528 1427q-2 -2 -6 0.5t-7 7t-1 7.5q89 153 178 153q25 0 112.5 -25.5t137.5 -25.5q35 0 56.5 12.5t48.5 42.5q2 2 6 0.5t7 -6t1 -8.5q-56 -90 -91 -120.5t-77 -30.5q-38 0 -124.5 24.5t-135.5 24.5q-11 0 -20.5 -1.5t-16 -2.5t-14.5 -5.5t-11.5 -6t-11.5 -8.5t-10 -9 t-10.5 -11.5t-10.5 -11.5zM1468 1280q4 0 4 -12.5t-4 -12.5q-83 0 -127.5 -58t-44.5 -167v-1059q0 -5 -10 -6.5t-14 2.5l-961 1116v-835q0 -108 43 -165.5t125 -57.5q5 0 5 -12.5t-5 -12.5q-28 0 -90.5 2t-101.5 2q-41 0 -113 -2t-102 -2q-6 0 -6 12.5t6 12.5q89 0 136.5 58 t47.5 165v899q-103 108 -199 108q-5 0 -5 12.5t5 12.5q26 0 80.5 -2t77.5 -2q47 0 111.5 2t76.5 2q13 0 23 -6.5t17 -16t24.5 -35t36.5 -48.5l737 -869v725q0 109 -42.5 167t-123.5 58q-5 0 -5 12.5t5 12.5q26 0 90 -3t103 -3q38 0 105 3t95 3z" />
<glyph unicode="&#xd2;" horiz-adv-x="1568" d="M995 1391q-226 101 -454 157q-22 4 27 27q75 36 134 44q18 3 23 -1q23 -17 82 -63t105 -79.5t94 -64.5q4 -3 4 -8.5t-4.5 -10t-10.5 -1.5zM750 -25q-191 0 -341 91t-229.5 242t-79.5 331q0 129 43 239t115 187t165.5 131.5t195 80.5t202.5 26q146 0 270 -55t205.5 -146.5 t126.5 -208t45 -240.5q0 -140 -58 -266t-155 -216t-229 -143t-276 -53zM819 25q188 0 309 151t121 418q0 189 -61 337.5t-178 234t-271 85.5q-201 0 -310.5 -142.5t-109.5 -395.5q0 -195 64 -352.5t178.5 -246.5t257.5 -89z" />
<glyph unicode="&#xd3;" horiz-adv-x="1568" d="M594 1391q-4 -2 -7.5 0t-5 6t-1 8.5t3.5 5.5q48 30 96 65.5t102 77.5t84 64q17 12 114 -24q81 -31 76 -43q-1 -2 -7 -3q-223 -55 -455 -157zM750 -25q-191 0 -341 91t-229.5 242t-79.5 331q0 129 43 239t115 187t165.5 131.5t195 80.5t202.5 26q146 0 270 -55 t205.5 -146.5t126.5 -208t45 -240.5q0 -140 -58 -266t-155 -216t-229 -143t-276 -53zM819 25q188 0 309 151t121 418q0 189 -61 337.5t-178 234t-271 85.5q-201 0 -310.5 -142.5t-109.5 -395.5q0 -195 64 -352.5t178.5 -246.5t257.5 -89z" />
<glyph unicode="&#xd4;" horiz-adv-x="1568" d="M559 1432l211 225q9 7 23.5 7t23.5 -7l209 -225q3 -2 2 -6.5t-5 -7.5t-7 -1l-221 92l-224 -92q-2 -1 -6 2t-6 7t0 6zM750 -25q-191 0 -341 91t-229.5 242t-79.5 331q0 129 43 239t115 187t165.5 131.5t195 80.5t202.5 26q146 0 270 -55t205.5 -146.5t126.5 -208 t45 -240.5q0 -140 -58 -266t-155 -216t-229 -143t-276 -53zM819 25q188 0 309 151t121 418q0 189 -61 337.5t-178 234t-271 85.5q-201 0 -310.5 -142.5t-109.5 -395.5q0 -195 64 -352.5t178.5 -246.5t257.5 -89z" />
<glyph unicode="&#xd5;" horiz-adv-x="1568" d="M956 1544q35 0 56.5 12.5t48.5 42.5q2 2 6 0.5t7 -6t1 -8.5q-56 -90 -91 -120.5t-77 -30.5q-38 0 -124.5 24.5t-135.5 24.5q-12 0 -22 -1t-19.5 -5t-14.5 -5.5t-13.5 -9t-10.5 -9.5t-12 -13t-12 -13t-6.5 0.5t-7.5 7t-1 7.5q89 153 179 153q25 0 112 -25.5t137 -25.5z M750 -25q-191 0 -341 91t-229.5 242t-79.5 331q0 129 43 239t115 187t165.5 131.5t195 80.5t202.5 26q146 0 270 -55t205.5 -146.5t126.5 -208t45 -240.5q0 -140 -58 -266t-155 -216t-229 -143t-276 -53zM819 25q188 0 309 151t121 418q0 189 -61 337.5t-178 234t-271 85.5 q-201 0 -310.5 -142.5t-109.5 -395.5q0 -195 64 -352.5t178.5 -246.5t257.5 -89z" />
<glyph unicode="&#xd6;" horiz-adv-x="1568" d="M616 1450q-50 0 -77 26.5t-27 75.5q0 46 27.5 72.5t76.5 26.5q46 0 72.5 -26.5t26.5 -72.5q0 -49 -26.5 -75.5t-72.5 -26.5zM973 1450q-48 0 -75.5 26.5t-27.5 75.5q0 45 27.5 71t75.5 26q47 0 72.5 -25.5t25.5 -71.5q0 -49 -25.5 -75.5t-72.5 -26.5zM750 -25 q-191 0 -341 91t-229.5 242t-79.5 331q0 129 43 239t115 187t165.5 131.5t195 80.5t202.5 26q146 0 270 -55t205.5 -146.5t126.5 -208t45 -240.5q0 -140 -58 -266t-155 -216t-229 -143t-276 -53zM819 25q188 0 309 151t121 418q0 189 -61 337.5t-178 234t-271 85.5 q-201 0 -310.5 -142.5t-109.5 -395.5q0 -195 64 -352.5t178.5 -246.5t257.5 -89z" />
<glyph unicode="&#xd7;" horiz-adv-x="804" d="M829 236q4 -4 -11 -22t-32.5 -33t-21.5 -11l-361 358l-272 -274q-5 -4 -23.5 11t-33.5 33t-11 21l275 275l-137 137q-4 5 11 23.5t33 33.5t21 11l140 -137l221 221q4 4 21.5 -11t32.5 -33t11 -22l-221 -223z" />
<glyph unicode="&#xd8;" horiz-adv-x="1603" d="M1288 1110q87 -91 133.5 -210.5t46.5 -246.5q0 -140 -58 -266t-155 -216t-229 -143t-276 -53q-251 0 -426 154l-146 -147q-6 -5 -24.5 13t-12.5 25l144 146q-89 91 -137 213t-48 260q0 129 43 239t115 187t165.5 131.5t195 80.5t202.5 26q249 0 430 -156l146 147 q6 5 25.5 -11t13.5 -23zM319 713q0 -234 95 -416l723 733q-67 105 -169 163t-229 58q-201 0 -310.5 -142.5t-109.5 -395.5zM819 25q188 0 309 151t121 418q0 223 -86 389l-723 -735q69 -106 166.5 -164.5t212.5 -58.5z" />
<glyph unicode="&#xd9;" horiz-adv-x="1435" d="M967 1391q-225 100 -455 157q-22 4 27 27q75 36 134 44q18 3 23 -1q23 -17 82 -63t105 -79.5t94 -64.5q4 -3 4.5 -8.5t-4 -10t-10.5 -1.5zM1169 1030q0 107 -47.5 166t-136.5 59q-6 0 -6 12.5t6 12.5q29 0 99.5 -3t115.5 -3q38 0 105.5 3t95.5 3q5 0 5 -12.5t-5 -12.5 q-81 0 -124.5 -59t-43.5 -166v-573q0 -223 -137.5 -354.5t-364.5 -131.5q-229 0 -370.5 130.5t-141.5 353.5v659q0 88 -28.5 114.5t-127.5 26.5q-6 0 -6 12.5t6 12.5q32 0 116.5 -3t135.5 -3q54 0 139 3t115 3q6 0 6 -12.5t-6 -12.5q-98 0 -126.5 -28t-28.5 -117v-584 q0 -243 100.5 -362t284.5 -119q174 0 272 107.5t98 302.5v575z" />
<glyph unicode="&#xda;" horiz-adv-x="1435" d="M565 1391q-9 -4 -13 6.5t3 13.5q49 30 96.5 65t102.5 78t84 64q17 12 114 -25q80 -30 75 -42q-1 -2 -7 -3q-223 -55 -455 -157zM1169 1030q0 107 -47.5 166t-136.5 59q-6 0 -6 12.5t6 12.5q29 0 99.5 -3t115.5 -3q38 0 105.5 3t95.5 3q5 0 5 -12.5t-5 -12.5 q-81 0 -124.5 -59t-43.5 -166v-573q0 -223 -137.5 -354.5t-364.5 -131.5q-229 0 -370.5 130.5t-141.5 353.5v659q0 88 -28.5 114.5t-127.5 26.5q-6 0 -6 12.5t6 12.5q32 0 116.5 -3t135.5 -3q54 0 139 3t115 3q6 0 6 -12.5t-6 -12.5q-98 0 -126.5 -28t-28.5 -117v-584 q0 -243 100.5 -362t284.5 -119q174 0 272 107.5t98 302.5v575z" />
<glyph unicode="&#xdb;" horiz-adv-x="1435" d="M530 1432l211 225q9 7 23.5 7t23.5 -7l209 -225q3 -2 2 -6.5t-5 -7.5t-7 -1l-221 92l-223 -92q-2 -1 -6.5 2t-6.5 7t0 6zM1169 1030q0 107 -47.5 166t-136.5 59q-6 0 -6 12.5t6 12.5q29 0 99.5 -3t115.5 -3q38 0 105.5 3t95.5 3q5 0 5 -12.5t-5 -12.5q-81 0 -124.5 -59 t-43.5 -166v-573q0 -223 -137.5 -354.5t-364.5 -131.5q-229 0 -370.5 130.5t-141.5 353.5v659q0 88 -28.5 114.5t-127.5 26.5q-6 0 -6 12.5t6 12.5q32 0 116.5 -3t135.5 -3q54 0 139 3t115 3q6 0 6 -12.5t-6 -12.5q-98 0 -126.5 -28t-28.5 -117v-584q0 -243 100.5 -362 t284.5 -119q174 0 272 107.5t98 302.5v575z" />
<glyph unicode="&#xdc;" horiz-adv-x="1435" d="M588 1450q-50 0 -77.5 26.5t-27.5 75.5q0 46 28 72.5t77 26.5q46 0 72 -26.5t26 -72.5q0 -49 -26 -75.5t-72 -26.5zM944 1450q-48 0 -75 26.5t-27 75.5q0 46 27.5 71.5t74.5 25.5t72.5 -25.5t25.5 -71.5q0 -49 -25.5 -75.5t-72.5 -26.5zM1169 1030q0 107 -47.5 166 t-136.5 59q-6 0 -6 12.5t6 12.5q29 0 99.5 -3t115.5 -3q38 0 105.5 3t95.5 3q5 0 5 -12.5t-5 -12.5q-81 0 -124.5 -59t-43.5 -166v-573q0 -223 -137.5 -354.5t-364.5 -131.5q-229 0 -370.5 130.5t-141.5 353.5v659q0 88 -28.5 114.5t-127.5 26.5q-6 0 -6 12.5t6 12.5 q32 0 116.5 -3t135.5 -3q54 0 139 3t115 3q6 0 6 -12.5t-6 -12.5q-98 0 -126.5 -28t-28.5 -117v-584q0 -243 100.5 -362t284.5 -119q174 0 272 107.5t98 302.5v575z" />
<glyph unicode="&#xdd;" horiz-adv-x="1261" d="M461 1391q-9 -4 -13 6.5t3 13.5q48 30 96 65.5t102 77.5t84 64q17 12 114 -25q80 -30 75 -42q-1 -2 -7 -3q-220 -55 -454 -157zM1272 1280q4 0 4 -12.5t-4 -12.5q-67 0 -153.5 -70t-153.5 -181l-234 -379v-459q0 -90 27.5 -115.5t128.5 -25.5q5 0 5 -12.5t-5 -12.5 q-31 0 -116 2t-140 2q-50 0 -136 -2t-118 -2q-5 0 -5 12.5t5 12.5q100 0 129 26t29 115v422l-312 473q-70 108 -120.5 151t-96.5 43q-6 0 -6 12.5t6 12.5q21 0 66.5 -3t66.5 -3q61 0 176.5 3t147.5 3q5 0 5 -12.5t-5 -12.5q-65 0 -80.5 -34t20.5 -88l299 -457l207 342 q66 107 49.5 172t-110.5 65q-4 0 -4 12.5t4 12.5q36 0 117.5 -3t148.5 -3q34 0 81.5 3t76.5 3z" />
<glyph unicode="&#xde;" horiz-adv-x="1116" d="M592 301q102 0 172 88.5t70 257.5q0 163 -76 249.5t-203 86.5q-71 0 -135 -12v-797q0 -65 15.5 -94.5t59 -42t138.5 -12.5q5 0 5 -12.5t-5 -12.5q-41 0 -143.5 2t-165.5 2q-48 0 -129 -2t-109 -2q-6 0 -6 12.5t6 12.5q89 0 113 25.5t24 115.5v948q0 89 -24.5 115 t-112.5 26q-6 0 -6 12.5t6 12.5q28 0 109 -3t129 -3q63 0 165.5 3t143.5 3q5 0 5 -12.5t-5 -12.5q-95 0 -138.5 -12.5t-59 -42.5t-15.5 -96v-94q102 12 184 12q94 0 171 -18t138.5 -56t97 -104t38.5 -156q2 -84 -24 -154.5t-70 -118t-102 -80.5t-119 -48t-122 -15 q-43 0 -100 11q-5 1 -5.5 8t2.5 13t7 5q50 -8 76 -8z" />
<glyph unicode="&#xdf;" horiz-adv-x="1105" d="M799 29q53 0 81.5 34t28.5 97q0 84 -50.5 157t-170.5 164q-21 15 -8 33l156 242q-176 170 -316 170q-98 0 -144 -67.5t-46 -233.5v-459q0 -90 16.5 -115.5t77.5 -25.5q4 0 4 -12.5t-4 -12.5l-188 2q-44 0 -117.5 -1t-104.5 -1q-4 0 -4 12.5t4 12.5q87 0 113.5 26 t26.5 115v416q0 73 28.5 143t80.5 128.5t136 94t185 35.5q145 0 280 -47q47 -17 67 -12.5t54 41.5q7 7 16.5 1t6.5 -14l-217 -331q149 -105 211.5 -190t62.5 -175q0 -50 -22.5 -98t-64 -88t-107 -64t-144.5 -24q-100 0 -182 34q-19 3 -19 37l-10 217q-1 6 4.5 8.5t12 1.5 t8.5 -6q55 -110 122 -177.5t136 -67.5z" />
<glyph unicode="&#xe0;" horiz-adv-x="946" d="M217 1227q-22 4 27 27q75 35 134 43q17 2 23 -1q20 -15 81.5 -62.5t106.5 -80t93 -63.5q4 -3 4.5 -8.5t-4 -10.5t-10.5 -2q-230 102 -455 158zM918 117q6 3 10.5 -2t4 -10.5t-4.5 -8.5l-221 -106q-12 -4 -19 -4q-31 0 -60.5 37.5t-41.5 95.5l-131 -68q-127 -65 -205 -65 q-75 0 -118.5 36t-43.5 101q0 62 41.5 102t130.5 72l318 117v276q0 125 -29.5 182.5t-93.5 57.5q-37 0 -67.5 -18.5t-50.5 -51t-33 -67t-21 -74.5q-23 -103 -107 -103q-44 0 -71 25.5t-25 65.5q1 58 76 122.5t181.5 106t194.5 41.5q102 0 162 -56t60 -169v-496 q0 -156 94 -156q24 0 70 17zM469 100l111 54q-2 10 -2 32v191l-195 -78q-94 -35 -94 -117q0 -47 25.5 -75.5t68.5 -28.5q38 0 86 22z" />
<glyph unicode="&#xe1;" horiz-adv-x="946" d="M279 1069q-6 -3 -10 2t-4 10.5t3 8.5q49 30 96.5 64.5t103 77.5t83.5 64q17 12 114 -24q80 -30 75 -42l-7 -3q-215 -53 -454 -158zM918 117q6 3 10.5 -2t4 -10.5t-4.5 -8.5l-221 -106q-12 -4 -19 -4q-31 0 -60.5 37.5t-41.5 95.5l-131 -68q-127 -65 -205 -65 q-75 0 -118.5 36t-43.5 101q0 62 41.5 102t130.5 72l318 117v276q0 125 -29.5 182.5t-93.5 57.5q-37 0 -67.5 -18.5t-50.5 -51t-33 -67t-21 -74.5q-23 -103 -107 -103q-44 0 -71 25.5t-25 65.5q1 58 76 122.5t181.5 106t194.5 41.5q102 0 162 -56t60 -169v-496 q0 -156 94 -156q24 0 70 17zM469 100l111 54q-2 10 -2 32v191l-195 -78q-94 -35 -94 -117q0 -47 25.5 -75.5t68.5 -28.5q38 0 86 22z" />
<glyph unicode="&#xe2;" horiz-adv-x="946" d="M248 1077q-2 -1 -6 2t-6 7t0 6l210 225q9 9 24 9t24 -9l208 -225q3 -2 2 -6.5t-5 -7.5t-7 -1l-221 92zM918 117q6 3 10.5 -2t4 -10.5t-4.5 -8.5l-221 -106q-12 -4 -19 -4q-31 0 -60.5 37.5t-41.5 95.5l-131 -68q-127 -65 -205 -65q-75 0 -118.5 36t-43.5 101 q0 62 41.5 102t130.5 72l318 117v276q0 125 -29.5 182.5t-93.5 57.5q-37 0 -67.5 -18.5t-50.5 -51t-33 -67t-21 -74.5q-23 -103 -107 -103q-44 0 -71 25.5t-25 65.5q1 58 76 122.5t181.5 106t194.5 41.5q102 0 162 -56t60 -169v-496q0 -156 94 -156q24 0 70 17zM469 100 l111 54q-2 10 -2 32v191l-195 -78q-94 -35 -94 -117q0 -47 25.5 -75.5t68.5 -28.5q38 0 86 22z" />
<glyph unicode="&#xe3;" horiz-adv-x="946" d="M211 1106q-5 -3 -11.5 3.5t-2.5 10.5q100 154 194 154q32 0 117.5 -25.5t132.5 -25.5q33 0 54 12.5t48 42.5q2 2 6.5 0.5t7.5 -6t1 -8.5q-60 -90 -98.5 -121t-84.5 -31q-40 0 -127.5 24.5t-134.5 24.5q-11 0 -20 -1.5t-15.5 -2.5t-14 -5t-11 -6t-11 -8.5t-9.5 -8.5 t-10.5 -11t-10.5 -12zM918 117q6 3 10.5 -2t4 -10.5t-4.5 -8.5l-221 -106q-12 -4 -19 -4q-31 0 -60.5 37.5t-41.5 95.5l-131 -68q-127 -65 -205 -65q-75 0 -118.5 36t-43.5 101q0 62 41.5 102t130.5 72l318 117v276q0 125 -29.5 182.5t-93.5 57.5q-37 0 -67.5 -18.5 t-50.5 -51t-33 -67t-21 -74.5q-23 -103 -107 -103q-44 0 -71 25.5t-25 65.5q1 58 76 122.5t181.5 106t194.5 41.5q102 0 162 -56t60 -169v-496q0 -156 94 -156q24 0 70 17zM469 100l111 54q-2 10 -2 32v191l-195 -78q-94 -35 -94 -117q0 -47 25.5 -75.5t68.5 -28.5 q38 0 86 22z" />
<glyph unicode="&#xe4;" horiz-adv-x="946" d="M293 1128q-50 0 -77.5 27t-27.5 76q0 46 28 72t77 26q46 0 72 -26t26 -72q0 -49 -26 -76t-72 -27zM649 1128q-48 0 -75 27t-27 76q0 45 27 70.5t75 25.5q47 0 73 -25t26 -71q0 -49 -26 -76t-73 -27zM918 117q6 3 10.5 -2t4 -10.5t-4.5 -8.5l-221 -106q-12 -4 -19 -4 q-31 0 -60.5 37.5t-41.5 95.5l-131 -68q-127 -65 -205 -65q-75 0 -118.5 36t-43.5 101q0 62 41.5 102t130.5 72l318 117v276q0 125 -29.5 182.5t-93.5 57.5q-37 0 -67.5 -18.5t-50.5 -51t-33 -67t-21 -74.5q-23 -103 -107 -103q-44 0 -71 25.5t-25 65.5q1 58 76 122.5 t181.5 106t194.5 41.5q102 0 162 -56t60 -169v-496q0 -156 94 -156q24 0 70 17zM469 100l111 54q-2 10 -2 32v191l-195 -78q-94 -35 -94 -117q0 -47 25.5 -75.5t68.5 -28.5q38 0 86 22z" />
<glyph unicode="&#xe5;" horiz-adv-x="946" d="M446 1126q-93 0 -148.5 48t-55.5 114q0 74 70 117t155 43t145 -48t60 -116q0 -71 -69 -114.5t-157 -43.5zM426 1421q-55 0 -55 -92q0 -67 29.5 -121.5t78.5 -54.5q62 0 62 94q0 71 -34 122.5t-81 51.5zM918 117q6 3 10.5 -2t4 -10.5t-4.5 -8.5l-221 -106q-12 -4 -19 -4 q-31 0 -60.5 37.5t-41.5 95.5l-131 -68q-127 -65 -205 -65q-75 0 -118.5 36t-43.5 101q0 62 41.5 102t130.5 72l318 117v276q0 125 -29.5 182.5t-93.5 57.5q-37 0 -67.5 -18.5t-50.5 -51t-33 -67t-21 -74.5q-23 -103 -107 -103q-44 0 -71 25.5t-25 65.5q1 58 76 122.5 t181.5 106t194.5 41.5q102 0 162 -56t60 -169v-496q0 -156 94 -156q24 0 70 17zM469 100l111 54q-2 10 -2 32v191l-195 -78q-94 -35 -94 -117q0 -47 25.5 -75.5t68.5 -28.5q38 0 86 22z" />
<glyph unicode="&#xe6;" horiz-adv-x="1298" d="M1284 111q6 3 13 -6t1 -15q-143 -115 -313 -115q-246 0 -344 179l-201 -107q-68 -33 -111.5 -47t-88.5 -14q-83 0 -127.5 36t-44.5 101q0 61 41 102.5t127 73.5l339 123q-2 14 -2 45q-2 98 -5.5 164t-10 120.5t-16 86.5t-25.5 54t-35.5 30t-48.5 8q-142 0 -170 -189 q-4 -44 -27 -77t-71 -33q-43 0 -67.5 24t-24.5 62q0 57 67.5 119t167.5 101.5t189 39.5q163 0 192 -199q99 199 334 199q123 0 192.5 -65.5t69.5 -172.5q0 -45 -24 -45l-492 -2q-14 -71 -14 -178q0 -227 73.5 -344t247.5 -117q108 0 209 58zM963 936q-66 0 -115 -54 t-74 -155l311 6q0 98 -31 150.5t-91 52.5zM453 98l176 82q-39 82 -51 207l-218 -86q-94 -36 -94 -117q0 -49 29.5 -77.5t73.5 -28.5q43 0 84 20z" />
<glyph unicode="&#xe7;" horiz-adv-x="1091" d="M975 287q5 7 14.5 5.5t9.5 -7.5l-20 -217q-2 -18 -6.5 -24t-22.5 -13q-152 -52 -317 -56q-17 -68 -2 -102t76 -70q52 -30 82 -65.5t30 -91.5q0 -82 -59.5 -145.5t-177.5 -63.5q-146 0 -146 92q0 28 22 50t52 22q34 0 52 -18.5t23 -41t22 -41t50 -18.5q54 0 54 59 q0 54 -38 96.5t-134 96.5q-19 9 -21 19t8 38q46 114 70 184q-114 3 -207 37.5t-151.5 86t-98.5 119t-56.5 133.5t-16.5 132q0 105 43.5 198t118.5 159t180 104.5t225 38.5q78 0 166 -15.5t145 -43.5q23 -10 25 -35l12 -211q0 -6 -11 -7.5t-14 5.5q-125 268 -354 268 q-151 0 -238.5 -119.5t-87.5 -310.5q0 -74 13.5 -144.5t43 -135.5t72 -113.5t106 -77.5t140.5 -29q112 0 189.5 65.5t134.5 207.5z" />
<glyph unicode="&#xe8;" horiz-adv-x="917" d="M268 1227q-22 4 26 26q73 35 134 44q19 2 25 -1q22 -17 81.5 -63t105 -79t93.5 -64q4 -3 4.5 -8.5t-4 -10.5t-10.5 -2q-230 102 -455 158zM852 111q6 4 13 -8q5 -8 1 -13q-146 -115 -317 -115q-116 0 -210.5 41.5t-152.5 110.5t-89 155t-31 179q0 218 150 368t374 150 q132 0 207 -66.5t75 -173.5q0 -24 -4.5 -34.5t-17.5 -10.5l-582 -2q-14 -60 -14 -147q0 -223 103 -359.5t284 -136.5q120 0 211 62zM520 932q-91 0 -152.5 -53t-91.5 -152l404 6q0 94 -44.5 146.5t-115.5 52.5z" />
<glyph unicode="&#xe9;" horiz-adv-x="917" d="M330 1069q-6 -3 -10 2t-4 10.5t3 8.5q49 30 96.5 64.5t103 77.5t83.5 64q17 12 114 -24q80 -30 75 -42l-7 -3q-215 -53 -454 -158zM852 111q6 4 13 -8q5 -8 1 -13q-146 -115 -317 -115q-116 0 -210.5 41.5t-152.5 110.5t-89 155t-31 179q0 218 150 368t374 150 q132 0 207 -66.5t75 -173.5q0 -24 -4.5 -34.5t-17.5 -10.5l-582 -2q-14 -60 -14 -147q0 -223 103 -359.5t284 -136.5q120 0 211 62zM520 932q-91 0 -152.5 -53t-91.5 -152l404 6q0 94 -44.5 146.5t-115.5 52.5z" />
<glyph unicode="&#xea;" horiz-adv-x="917" d="M299 1077q-2 -1 -6 2t-6 7t0 6l211 225q9 9 23.5 9t23.5 -9l209 -225q3 -2 2 -6.5t-5.5 -7.5t-7.5 -1l-221 92zM852 111q6 4 13 -8q5 -8 1 -13q-146 -115 -317 -115q-116 0 -210.5 41.5t-152.5 110.5t-89 155t-31 179q0 218 150 368t374 150q132 0 207 -66.5t75 -173.5 q0 -24 -4.5 -34.5t-17.5 -10.5l-582 -2q-14 -60 -14 -147q0 -223 103 -359.5t284 -136.5q120 0 211 62zM520 932q-91 0 -152.5 -53t-91.5 -152l404 6q0 94 -44.5 146.5t-115.5 52.5z" />
<glyph unicode="&#xeb;" horiz-adv-x="917" d="M344 1128q-50 0 -77 27t-27 76q0 46 27.5 72t76.5 26q46 0 72 -26t26 -72q0 -49 -26 -76t-72 -27zM700 1128q-48 0 -75 27t-27 76q0 45 27 70.5t75 25.5q47 0 73 -25t26 -71q0 -49 -26 -76t-73 -27zM852 111q6 4 13 -8q5 -8 1 -13q-146 -115 -317 -115 q-116 0 -210.5 41.5t-152.5 110.5t-89 155t-31 179q0 218 150 368t374 150q132 0 207 -66.5t75 -173.5q0 -24 -4.5 -34.5t-17.5 -10.5l-582 -2q-14 -60 -14 -147q0 -223 103 -359.5t284 -136.5q120 0 211 62zM520 932q-91 0 -152.5 -53t-91.5 -152l404 6q0 94 -44.5 146.5 t-115.5 52.5z" />
<glyph unicode="&#xec;" horiz-adv-x="614" d="M516 1069q-230 102 -455 158q-22 4 26 26q73 35 134 44q19 3 25 -1q22 -17 81.5 -63t105 -79t93.5 -64q4 -3 4.5 -8.5t-4 -10.5t-10.5 -2zM397 166q0 -89 25.5 -115t114.5 -26q5 0 5 -12.5t-5 -12.5q-28 0 -105 2t-127 2q-45 0 -122 -2t-105 -2q-6 0 -6 12.5t6 12.5 q90 0 115.5 25.5t25.5 115.5v627q0 89 -25.5 115t-115.5 26q-6 0 -6 12t6 12q28 0 105 -3t122 -3q50 0 128.5 3t103.5 3q5 0 5 -12t-5 -12q-88 0 -114 -28.5t-26 -117.5v-622z" />
<glyph unicode="&#xed;" horiz-adv-x="614" d="M123 1069q-6 -3 -10 2t-3.5 10.5t3.5 8.5q49 30 96.5 65t102 77.5t83.5 63.5q17 12 114 -24q81 -30 76 -42q-1 -2 -7 -3q-218 -54 -455 -158zM397 166q0 -89 25.5 -115t114.5 -26q5 0 5 -12.5t-5 -12.5q-28 0 -105 2t-127 2q-45 0 -122 -2t-105 -2q-6 0 -6 12.5t6 12.5 q90 0 115.5 25.5t25.5 115.5v627q0 89 -25.5 115t-115.5 26q-6 0 -6 12t6 12q28 0 105 -3t122 -3q50 0 128.5 3t103.5 3q5 0 5 -12t-5 -12q-88 0 -114 -28.5t-26 -117.5v-622z" />
<glyph unicode="&#xee;" horiz-adv-x="614" d="M80 1092l211 225q9 9 23.5 9t23.5 -9l209 -225q3 -2 2 -6.5t-5 -7.5t-7 -1l-222 92l-223 -92q-2 -1 -6 2t-6 7t0 6zM397 166q0 -89 25.5 -115t114.5 -26q5 0 5 -12.5t-5 -12.5q-28 0 -105 2t-127 2q-45 0 -122 -2t-105 -2q-6 0 -6 12.5t6 12.5q90 0 115.5 25.5 t25.5 115.5v627q0 89 -25.5 115t-115.5 26q-6 0 -6 12t6 12q28 0 105 -3t122 -3q50 0 128.5 3t103.5 3q5 0 5 -12t-5 -12q-88 0 -114 -28.5t-26 -117.5v-622z" />
<glyph unicode="&#xef;" horiz-adv-x="614" d="M162 1128q-48 0 -76.5 27t-28.5 76q0 45 28.5 71.5t76.5 26.5q47 0 73.5 -26t26.5 -72q0 -49 -26.5 -76t-73.5 -27zM467 1128q-49 0 -75.5 26.5t-26.5 76.5q0 46 26.5 71t75.5 25q46 0 72 -25t26 -71q0 -49 -26 -76t-72 -27zM397 166q0 -89 25.5 -115t114.5 -26 q5 0 5 -12.5t-5 -12.5q-28 0 -105 2t-127 2q-45 0 -122 -2t-105 -2q-6 0 -6 12.5t6 12.5q90 0 115.5 25.5t25.5 115.5v627q0 89 -25.5 115t-115.5 26q-6 0 -6 12t6 12q28 0 105 -3t122 -3q50 0 128.5 3t103.5 3q5 0 5 -12t-5 -12q-88 0 -114 -28.5t-26 -117.5v-622z" />
<glyph unicode="&#xf0;" horiz-adv-x="1163" d="M543 963q259 0 406 -134t147 -344q0 -215 -148.5 -354t-380.5 -139q-37 0 -132 6t-142 6q-43 0 -120.5 -2t-106.5 -2q-6 0 -6 12.5t6 12.5q90 0 115.5 25.5t25.5 115.5v293h-90q-9 0 -9 25.5t9 25.5h90v283q0 89 -25.5 115t-113.5 26q-4 0 -4 12t4 12q29 0 105.5 -3 t119.5 -3q42 0 126.5 5.5t123.5 5.5zM543 31q164 0 256 112t92 320q0 95 -21.5 176.5t-64 146.5t-114 102.5t-165.5 37.5q-78 0 -110.5 -30t-32.5 -108v-278h225q9 0 9 -25.5t-9 -25.5h-225v-271q0 -86 32 -121.5t128 -35.5z" />
<glyph unicode="&#xf1;" horiz-adv-x="1228" d="M383 1106q-5 -3 -11.5 3.5t-2.5 10.5q100 154 194 154q31 0 117 -25.5t133 -25.5q33 0 54 12.5t48 42.5q2 2 6.5 0.5t7.5 -6t1 -8.5q-60 -90 -98 -121t-84 -31q-40 0 -128 24.5t-135 24.5q-11 0 -20 -1.5t-15.5 -2.5t-14 -5t-11 -6t-11 -8.5t-9.5 -8.5t-10.5 -11 t-10.5 -12zM1219 25q6 0 6 -12.5t-6 -12.5q-26 0 -102.5 2t-125.5 2q-46 0 -122 -2t-103 -2q-4 0 -4 12.5t4 12.5q88 0 113.5 26t25.5 115v414q0 147 -56.5 220.5t-180.5 73.5q-148 0 -283 -104v-604q0 -90 25 -115.5t114 -25.5q4 0 4 -12.5t-4 -12.5q-27 0 -103 2t-126 2 q-46 0 -121 -2t-102 -2q-4 0 -4 12.5t4 12.5q87 0 112 25.5t25 115.5v627q0 89 -25.5 115t-115.5 26q-6 0 -6 12t6 12q31 0 91 -1t95 -1q21 0 50 1t42 1q26 0 32.5 -6.5t6.5 -31.5v-107q175 172 371 172q156 0 239.5 -90t83.5 -254v-475q0 -89 25.5 -115t114.5 -26z" />
<glyph unicode="&#xf2;" d="M786 1065q-231 103 -454 158q-22 4 27 27q75 35 134 43q18 3 23 -1q23 -17 82 -63t105 -79.5t94 -64.5q4 -3 4 -8.5t-4.5 -10t-10.5 -1.5zM563 -25q-145 0 -260 69.5t-176 183.5t-61 249q0 119 50 218t130 160.5t175.5 94.5t192.5 33q145 0 258.5 -72.5t171.5 -183.5 t58 -235q0 -138 -71.5 -257t-196 -189.5t-271.5 -70.5zM612 20q130 0 209.5 113t79.5 311q0 209 -97.5 349.5t-258.5 140.5q-134 0 -205.5 -102t-71.5 -295q0 -145 43 -262.5t122 -186t179 -68.5z" />
<glyph unicode="&#xf3;" d="M393 1065q-9 -4 -13 6.5t3 13.5q49 30 96.5 65t102.5 78t84 64q17 12 114 -24q80 -30 75 -42l-7 -3q-218 -54 -455 -158zM563 -25q-145 0 -260 69.5t-176 183.5t-61 249q0 119 50 218t130 160.5t175.5 94.5t192.5 33q145 0 258.5 -72.5t171.5 -183.5t58 -235 q0 -138 -71.5 -257t-196 -189.5t-271.5 -70.5zM612 20q130 0 209.5 113t79.5 311q0 209 -97.5 349.5t-258.5 140.5q-134 0 -205.5 -102t-71.5 -295q0 -145 43 -262.5t122 -186t179 -68.5z" />
<glyph unicode="&#xf4;" d="M350 1087l211 226q9 9 23.5 9t23.5 -9l209 -226q3 -2 2 -6t-5 -7t-7 -1l-221 92l-224 -92q-2 -1 -6 2t-6 6.5t0 5.5zM563 -25q-145 0 -260 69.5t-176 183.5t-61 249q0 119 50 218t130 160.5t175.5 94.5t192.5 33q145 0 258.5 -72.5t171.5 -183.5t58 -235 q0 -138 -71.5 -257t-196 -189.5t-271.5 -70.5zM612 20q130 0 209.5 113t79.5 311q0 209 -97.5 349.5t-258.5 140.5q-134 0 -205.5 -102t-71.5 -295q0 -145 43 -262.5t122 -186t179 -68.5z" />
<glyph unicode="&#xf5;" d="M756 1219q33 0 54 12.5t48 42.5q2 2 6 0.5t7 -6t1 -8.5q-60 -90 -98 -121t-84 -31q-40 0 -127.5 24.5t-134.5 24.5q-11 0 -20 -1.5t-15.5 -2.5t-14 -5t-11 -6t-11 -8.5t-9.5 -8.5t-10.5 -11t-10.5 -12q-3 -2 -8 0.5t-7 6.5t0 7q100 154 195 154q32 0 118 -25.5t132 -25.5 zM563 -25q-145 0 -260 69.5t-176 183.5t-61 249q0 119 50 218t130 160.5t175.5 94.5t192.5 33q145 0 258.5 -72.5t171.5 -183.5t58 -235q0 -138 -71.5 -257t-196 -189.5t-271.5 -70.5zM612 20q130 0 209.5 113t79.5 311q0 209 -97.5 349.5t-258.5 140.5q-134 0 -205.5 -102 t-71.5 -295q0 -145 43 -262.5t122 -186t179 -68.5z" />
<glyph unicode="&#xf6;" d="M408 1124q-50 0 -77.5 27t-27.5 76q0 46 28 72t77 26q46 0 72 -26t26 -72q0 -49 -26 -76t-72 -27zM764 1124q-48 0 -75 27t-27 76q0 45 27 70.5t75 25.5q47 0 72.5 -25t25.5 -71q0 -50 -25.5 -76.5t-72.5 -26.5zM563 -25q-145 0 -260 69.5t-176 183.5t-61 249 q0 119 50 218t130 160.5t175.5 94.5t192.5 33q145 0 258.5 -72.5t171.5 -183.5t58 -235q0 -138 -71.5 -257t-196 -189.5t-271.5 -70.5zM612 20q130 0 209.5 113t79.5 311q0 209 -97.5 349.5t-258.5 140.5q-134 0 -205.5 -102t-71.5 -295q0 -145 43 -262.5t122 -186 t179 -68.5z" />
<glyph unicode="&#xf7;" horiz-adv-x="815" d="M406 670q-53 0 -83 30t-30 82q0 50 30.5 78.5t82.5 28.5t81 -28.5t29 -78.5q0 -53 -29 -82.5t-81 -29.5zM70 522q-6 0 -8 23.5t-0.5 47t6.5 23.5h796q9 0 9 -47t-9 -47h-794zM406 61q-52 0 -82.5 30.5t-30.5 82.5q0 50 30.5 78.5t82.5 28.5t81 -28.5t29 -78.5 q0 -53 -29 -83t-81 -30z" />
<glyph unicode="&#xf8;" d="M963 838q67 -68 103 -159t36 -187q0 -138 -71.5 -257t-196 -189.5t-271.5 -70.5q-195 0 -330 119l-108 -110q-4 -4 -14.5 3t-18 17.5t-2.5 15.5l107 109q-131 143 -131 348q0 119 50 218t130 160.5t175.5 94.5t192.5 33q181 0 312 -111l102 105q3 4 14 -3t19 -16.5 t4 -13.5zM268 537q0 -156 51 -283l502 512q-47 79 -117.5 123.5t-158.5 44.5q-134 0 -205.5 -102t-71.5 -295zM612 20q130 0 209.5 113t79.5 311q0 158 -55 277l-504 -514q47 -88 116.5 -137.5t153.5 -49.5z" />
<glyph unicode="&#xf9;" horiz-adv-x="1187" d="M856 1069q-230 102 -455 158q-22 4 26 26q73 35 134 44q19 3 25 -1q22 -17 81.5 -63t105 -79t93.5 -64q4 -3 4.5 -8.5t-4 -10.5t-10.5 -2zM971 733q0 108 -39 154.5t-131 46.5q-5 0 -5 12t5 12q28 0 90.5 -3t101.5 -3q32 0 92 3t84 3q6 0 6 -12t-6 -12q-82 0 -115.5 -46 t-33.5 -155v-356q0 -191 -105.5 -297.5t-283.5 -106.5q-115 0 -210 44t-153.5 132.5t-58.5 206.5v437q0 89 -25.5 115t-113.5 26q-4 0 -4 12t4 12q29 0 105 -3t118 -3q49 0 125.5 3t103.5 3q4 0 4 -12t-4 -12q-88 0 -113.5 -28.5t-25.5 -117.5v-378q0 -184 84 -271.5 t219 -87.5q132 0 208.5 83.5t76.5 238.5v360z" />
<glyph unicode="&#xfa;" horiz-adv-x="1187" d="M463 1069q-6 -3 -10 2t-3.5 10.5t3.5 8.5q49 30 96.5 65t102 77.5t83.5 63.5q17 12 114 -24q81 -30 76 -42q-1 -2 -7 -3q-218 -54 -455 -158zM971 733q0 108 -39 154.5t-131 46.5q-5 0 -5 12t5 12q28 0 90.5 -3t101.5 -3q32 0 92 3t84 3q6 0 6 -12t-6 -12 q-82 0 -115.5 -46t-33.5 -155v-356q0 -191 -105.5 -297.5t-283.5 -106.5q-115 0 -210 44t-153.5 132.5t-58.5 206.5v437q0 89 -25.5 115t-113.5 26q-4 0 -4 12t4 12q29 0 105 -3t118 -3q49 0 125.5 3t103.5 3q4 0 4 -12t-4 -12q-88 0 -113.5 -28.5t-25.5 -117.5v-378 q0 -184 84 -271.5t219 -87.5q132 0 208.5 83.5t76.5 238.5v360z" />
<glyph unicode="&#xfb;" horiz-adv-x="1187" d="M420 1092l211 225q9 9 23.5 9t23.5 -9l209 -225q3 -2 2 -6.5t-5 -7.5t-7 -1l-222 92l-223 -92q-2 -1 -6 2t-6 7t0 6zM971 733q0 108 -39 154.5t-131 46.5q-5 0 -5 12t5 12q28 0 90.5 -3t101.5 -3q32 0 92 3t84 3q6 0 6 -12t-6 -12q-82 0 -115.5 -46t-33.5 -155v-356 q0 -191 -105.5 -297.5t-283.5 -106.5q-115 0 -210 44t-153.5 132.5t-58.5 206.5v437q0 89 -25.5 115t-113.5 26q-4 0 -4 12t4 12q29 0 105 -3t118 -3q49 0 125.5 3t103.5 3q4 0 4 -12t-4 -12q-88 0 -113.5 -28.5t-25.5 -117.5v-378q0 -184 84 -271.5t219 -87.5 q132 0 208.5 83.5t76.5 238.5v360z" />
<glyph unicode="&#xfc;" horiz-adv-x="1187" d="M477 1128q-50 0 -77 27t-27 76q0 46 27.5 72t76.5 26q46 0 72 -26t26 -72q0 -49 -26 -76t-72 -27zM834 1128q-48 0 -75.5 27t-27.5 76q0 45 27.5 70.5t75.5 25.5q47 0 72.5 -25t25.5 -71q0 -50 -25.5 -76.5t-72.5 -26.5zM971 733q0 108 -39 154.5t-131 46.5q-5 0 -5 12 t5 12q28 0 90.5 -3t101.5 -3q32 0 92 3t84 3q6 0 6 -12t-6 -12q-82 0 -115.5 -46t-33.5 -155v-356q0 -191 -105.5 -297.5t-283.5 -106.5q-115 0 -210 44t-153.5 132.5t-58.5 206.5v437q0 89 -25.5 115t-113.5 26q-4 0 -4 12t4 12q29 0 105 -3t118 -3q49 0 125.5 3t103.5 3 q4 0 4 -12t-4 -12q-88 0 -113.5 -28.5t-25.5 -117.5v-378q0 -184 84 -271.5t219 -87.5q132 0 208.5 83.5t76.5 238.5v360z" />
<glyph unicode="&#xfd;" horiz-adv-x="1046" d="M352 1069q-6 -3 -10 2t-3.5 10.5t3.5 8.5q49 30 96.5 64.5t103 77.5t83.5 64q17 12 114 -24q80 -30 75 -42l-7 -3q-218 -54 -455 -158zM1055 958q6 0 6 -12t-6 -12q-59 0 -107 -43.5t-78 -128.5l-295 -760q-47 -130 -120 -231.5t-154 -141.5q-11 -6 -37.5 14t-40.5 50 q-17 34 -18.5 71t12.5 39q109 17 187 61.5t124 137.5l-374 786q-41 86 -71.5 116t-84.5 30q-6 0 -6 12t6 12q30 0 95.5 -3t119.5 -3q47 0 117.5 3t97.5 3q6 0 6 -12t-6 -12q-149 0 -88 -125l278 -571l201 536q64 160 -117 160q-4 0 -4 12t4 12q24 0 84.5 -3t112.5 -3 q34 0 80.5 3t75.5 3z" />
<glyph unicode="&#xfe;" horiz-adv-x="954" d="M528 774q361 0 361 -254q0 -64 -22 -118.5t-58.5 -90.5t-83.5 -61.5t-97 -37t-100 -11.5q-51 0 -82 10q-5 1 -5.5 8t2.5 13.5t8 5.5q27 -9 57 -9q75 0 127.5 65t52.5 185q0 128 -56 193t-151 65q-42 0 -100 -8v-555q0 -93 25.5 -121t115.5 -28q4 0 4 -12.5t-4 -12.5 q-30 0 -107 2t-122 2q-43 0 -120.5 -2t-106.5 -2q-6 0 -6 12.5t6 12.5q90 0 114.5 25.5t24.5 115.5v627q0 89 -24.5 115t-114.5 26q-6 0 -6 12t6 12q29 0 106.5 -3t120.5 -3q45 0 122 3t107 3q4 0 4 -12t-4 -12q-90 0 -115.5 -28.5t-25.5 -123.5v-20q79 12 147 12z" />
<glyph unicode="&#xff;" horiz-adv-x="1046" d="M367 1128q-50 0 -77.5 27t-27.5 76q0 46 28 72t77 26q46 0 72 -26t26 -72q0 -49 -26 -76t-72 -27zM723 1128q-48 0 -75 27t-27 76q0 45 27 70.5t75 25.5q47 0 72.5 -25t25.5 -71q0 -50 -25.5 -76.5t-72.5 -26.5zM1055 958q6 0 6 -12t-6 -12q-59 0 -107 -43.5t-78 -128.5 l-295 -760q-47 -130 -120 -231.5t-154 -141.5q-11 -6 -37.5 14t-40.5 50q-17 34 -18.5 71t12.5 39q109 17 187 61.5t124 137.5l-374 786q-41 86 -71.5 116t-84.5 30q-6 0 -6 12t6 12q30 0 95.5 -3t119.5 -3q47 0 117.5 3t97.5 3q6 0 6 -12t-6 -12q-149 0 -88 -125l278 -571 l201 536q64 160 -117 160q-4 0 -4 12t4 12q24 0 84.5 -3t112.5 -3q34 0 80.5 3t75.5 3z" />
<glyph unicode="&#x152;" horiz-adv-x="1896" d="M1778 317q2 6 13 4.5t11 -6.5q-18 -140 -18 -284q0 -17 -7 -24t-26 -7h-639q-42 0 -134 -4t-138 -4q-217 0 -386.5 82.5t-261.5 224.5t-92 317q0 120 37 226.5t104 186.5t156.5 138t196.5 87.5t223 29.5q46 0 151 -2t156 -2h592q19 0 19 -18l6 -267q0 -5 -11.5 -5.5 t-13.5 3.5q-15 86 -92.5 161t-175.5 75h-100q-74 0 -104 -26.5t-30 -90.5v-420h197q223 0 223 152q0 6 12.5 6t12.5 -6q0 -48 -1 -102t-1 -76q0 -33 2 -98t2 -103q0 -6 -12.5 -6t-12.5 6q0 174 -229 174h-193v-465q0 -67 25 -94t90 -27h117q107 0 205 77.5t127 186.5z M1018 166v940q0 84 -34 111.5t-144 27.5q-234 0 -377.5 -153.5t-143.5 -429.5q0 -176 61.5 -319t178 -227.5t268.5 -84.5q117 0 154 25.5t37 109.5z" />
<glyph unicode="&#x153;" horiz-adv-x="1611" d="M1544 117q3 3 8 -1t7 -9t0 -9q-75 -66 -150 -94.5t-168 -28.5q-108 0 -200.5 57t-151.5 156q-69 -99 -174.5 -156t-229.5 -57q-128 0 -228 69t-152 181.5t-52 245.5q0 121 46.5 221.5t120.5 162t161 95t174 33.5q118 0 207.5 -55t146.5 -150q63 94 161 146.5t212 52.5 q129 0 207 -65.5t78 -172.5q0 -45 -23 -45l-540 -2q-19 -90 -19 -196q0 -214 86.5 -328.5t243.5 -114.5q135 0 229 64zM1235 936q-161 0 -223 -209l358 8q0 95 -38.5 148t-96.5 53zM551 25q114 0 185 112.5t67 308.5q-2 129 -39.5 237.5t-111.5 176.5t-171 68 q-117 0 -176.5 -100.5t-56.5 -284.5q2 -140 39 -257.5t106.5 -189t157.5 -71.5z" />
<glyph unicode="&#x178;" horiz-adv-x="1261" d="M483 1450q-50 0 -77 26.5t-27 75.5q0 46 27.5 72.5t76.5 26.5q46 0 72.5 -26.5t26.5 -72.5q0 -49 -26.5 -75.5t-72.5 -26.5zM840 1450q-48 0 -75.5 26.5t-27.5 75.5q0 45 27.5 71t75.5 26q47 0 72.5 -25.5t25.5 -71.5q0 -49 -25.5 -75.5t-72.5 -26.5zM1272 1280 q4 0 4 -12.5t-4 -12.5q-67 0 -153.5 -70t-153.5 -181l-234 -379v-459q0 -90 27.5 -115.5t128.5 -25.5q5 0 5 -12.5t-5 -12.5q-31 0 -116 2t-140 2q-50 0 -136 -2t-118 -2q-5 0 -5 12.5t5 12.5q100 0 129 26t29 115v422l-312 473q-70 108 -120.5 151t-96.5 43q-6 0 -6 12.5 t6 12.5q21 0 66.5 -3t66.5 -3q61 0 176.5 3t147.5 3q5 0 5 -12.5t-5 -12.5q-65 0 -80.5 -34t20.5 -88l299 -457l207 342q66 107 49.5 172t-110.5 65q-4 0 -4 12.5t4 12.5q36 0 117.5 -3t148.5 -3q34 0 81.5 3t76.5 3z" />
<glyph unicode="&#x2c6;" horiz-adv-x="536" d="M47 924l211 225q9 9 23.5 9t23.5 -9l209 -225q3 -2 2 -6.5t-5 -7.5t-7 -1l-221 92l-224 -92q-2 -1 -6 2t-6 7t0 6z" />
<glyph unicode="&#x2dc;" horiz-adv-x="786" d="M567 1055q33 0 54.5 12.5t48.5 42.5q2 2 6 0.5t7 -6t1 -8.5q-60 -90 -98 -121t-84 -31q-40 0 -127.5 24.5t-134.5 24.5q-9 0 -17 -0.5t-15.5 -3t-12.5 -3.5t-11.5 -5.5t-9.5 -6t-9.5 -8t-8.5 -8t-9.5 -10t-9.5 -10.5q-3 -2 -7.5 0.5t-6.5 6.5t0 7q100 154 194 154 q31 0 117 -25.5t133 -25.5z" />
<glyph unicode="&#x2000;" horiz-adv-x="837" />
<glyph unicode="&#x2001;" horiz-adv-x="1675" />
<glyph unicode="&#x2002;" horiz-adv-x="837" />
<glyph unicode="&#x2003;" horiz-adv-x="1675" />
<glyph unicode="&#x2004;" horiz-adv-x="558" />
<glyph unicode="&#x2005;" horiz-adv-x="418" />
<glyph unicode="&#x2006;" horiz-adv-x="279" />
<glyph unicode="&#x2007;" horiz-adv-x="279" />
<glyph unicode="&#x2008;" horiz-adv-x="209" />
<glyph unicode="&#x2009;" horiz-adv-x="335" />
<glyph unicode="&#x200a;" horiz-adv-x="93" />
<glyph unicode="&#x2010;" horiz-adv-x="577" d="M66 408q-6 -1 -8.5 24.5t-1.5 52t5 27.5l439 72q6 1 8 -25t0 -52.5t-8 -27.5z" />
<glyph unicode="&#x2011;" horiz-adv-x="577" d="M66 408q-6 -1 -8.5 24.5t-1.5 52t5 27.5l439 72q6 1 8 -25t0 -52.5t-8 -27.5z" />
<glyph unicode="&#x2012;" horiz-adv-x="577" d="M66 408q-6 -1 -8.5 24.5t-1.5 52t5 27.5l439 72q6 1 8 -25t0 -52.5t-8 -27.5z" />
<glyph unicode="&#x2013;" horiz-adv-x="933" d="M70 438q-6 0 -8 23.5t-0.5 47t6.5 23.5h796q9 0 9 -47t-9 -47h-794z" />
<glyph unicode="&#x2014;" horiz-adv-x="1533" d="M70 438q-6 0 -8 23.5t-0.5 47t6.5 23.5h1396q8 0 8 -47t-8 -47h-1394z" />
<glyph unicode="&#x2018;" horiz-adv-x="358" d="M201 1022q44 0 71 -28t27 -74q0 -52 -31.5 -80.5t-87.5 -28.5q-68 0 -106.5 53t-38.5 150q0 89 40 164.5t118 152.5q5 4 10.5 2t7 -7t-1.5 -9q-100 -103 -100 -242q0 -57 20 -84q19 31 72 31z" />
<glyph unicode="&#x2019;" horiz-adv-x="333" d="M152 1288q68 0 106.5 -53t38.5 -150q0 -89 -40 -164.5t-118 -152.5q-5 -4 -10.5 -2t-7 7t1.5 9q100 103 100 242q0 57 -20 84q-19 -31 -72 -31q-44 0 -71 28.5t-27 74.5q0 52 31.5 80t87.5 28z" />
<glyph unicode="&#x201a;" horiz-adv-x="333" d="M152 195q68 0 106.5 -53t38.5 -150q0 -89 -40 -165t-118 -153q-5 -4 -10.5 -1.5t-7 7.5t1.5 9q100 103 100 241q0 57 -20 84q-18 -30 -72 -30q-44 0 -71 28t-27 74q0 52 31.5 80.5t87.5 28.5z" />
<glyph unicode="&#x201c;" horiz-adv-x="669" d="M201 1022q44 0 71 -28t27 -74q0 -52 -31.5 -80.5t-87.5 -28.5q-68 0 -106.5 53t-38.5 150q0 89 40 164.5t118 152.5q5 4 10.5 2t7 -7t-1.5 -9q-100 -103 -100 -242q0 -57 20 -84q19 31 72 31zM539 1022q44 0 71 -28t27 -74q0 -52 -31.5 -80.5t-87.5 -28.5 q-68 0 -106.5 53t-38.5 150q0 90 39.5 165.5t117.5 151.5q5 4 11 2t7.5 -7t-1.5 -9q-101 -104 -101 -242q0 -56 21 -84q19 31 72 31z" />
<glyph unicode="&#x201d;" horiz-adv-x="669" d="M152 1288q68 0 106.5 -53t38.5 -150q0 -89 -40 -164.5t-118 -152.5q-5 -4 -10.5 -2t-7 7t1.5 9q100 103 100 242q0 57 -20 84q-19 -31 -72 -31q-44 0 -71 28.5t-27 74.5q0 52 31.5 80t87.5 28zM489 1288q68 0 107 -53t39 -150q0 -89 -40 -164.5t-118 -152.5 q-5 -4 -10.5 -2t-7 7t1.5 9q100 103 100 242q0 57 -20 84q-19 -31 -72 -31q-44 0 -71 28.5t-27 74.5q0 52 31 80t87 28z" />
<glyph unicode="&#x201e;" horiz-adv-x="688" d="M152 195q68 0 106.5 -53t38.5 -150q0 -89 -40 -165t-118 -153q-5 -4 -10.5 -1.5t-7 7.5t1.5 9q100 103 100 241q0 57 -20 84q-18 -30 -72 -30q-44 0 -71 28t-27 74q0 52 31.5 80.5t87.5 28.5zM489 195q68 0 107 -53t39 -150q0 -89 -40 -165t-118 -153q-5 -4 -10.5 -1.5 t-7 7.5t1.5 9q100 103 100 241q0 57 -20 84q-18 -30 -72 -30q-44 0 -71 28t-27 74q0 52 31 80.5t87 28.5z" />
<glyph unicode="&#x2022;" horiz-adv-x="651" d="M326 270q-87 0 -148 61t-61 148q0 85 61.5 146t147.5 61t147.5 -61t61.5 -146q0 -87 -61 -148t-148 -61z" />
<glyph unicode="&#x2026;" horiz-adv-x="1376" d="M211 -23q-53 0 -83 30.5t-30 82.5q0 50 30.5 78.5t82.5 28.5t81.5 -28.5t29.5 -78.5q0 -53 -29.5 -83t-81.5 -30zM690 -23q-52 0 -82 30t-30 83q0 50 30 78.5t82 28.5t81.5 -28.5t29.5 -78.5q0 -53 -29.5 -83t-81.5 -30zM1169 -23q-52 0 -82 30t-30 83q0 50 30 78.5 t82 28.5t81.5 -28.5t29.5 -78.5q0 -53 -29.5 -83t-81.5 -30z" />
<glyph unicode="&#x202f;" horiz-adv-x="335" />
<glyph unicode="&#x2039;" horiz-adv-x="622" d="M489 154l-376 307q-9 7 -9 21.5t9 23.5l376 305q6 8 14 -2q4 -5 1 -8l-209 -318l209 -317q2 -3 -0.5 -7.5t-7 -6t-7.5 1.5z" />
<glyph unicode="&#x203a;" horiz-adv-x="622" d="M133 811l377 -305q9 -9 9 -23.5t-9 -21.5l-377 -307q-3 -4 -7.5 -2.5t-6.5 6t0 8.5l209 315l-209 320q-2 4 4 9.5t10 0.5z" />
<glyph unicode="&#x205f;" horiz-adv-x="418" />
<glyph unicode="&#x20ac;" horiz-adv-x="1202" d="M1087 264q3 6 14 4t11 -8l-29 -192q-3 -18 -7 -24t-21 -13q-163 -56 -330 -56q-120 0 -216.5 33t-159 90t-100.5 122t-56 140h-99q-14 0 -14 27t14 27h88q-4 50 -4 69v29h-84q-14 0 -14 27.5t14 27.5h92q32 183 191.5 299.5t382.5 116.5q198 0 301 -68q10 -6 14 -8t10 -7 t7.5 -9t1.5 -10.5t-4 -14.5l-82 -188q-2 -3 -7 -3t-10 3.5t-4 7.5q10 107 -70 183.5t-200 76.5q-135 0 -228.5 -106.5t-107.5 -272.5h580q15 0 4 -27q-12 -27 -27 -28h-559q0 -49 6 -98h520q14 0 3 -27q-12 -26 -25 -27h-488q16 -72 45.5 -133.5t72 -111t102.5 -77.5 t130 -28q225 0 342 254z" />
<glyph unicode="&#x2122;" horiz-adv-x="1499" d="M582 1311q2 5 13 5t11 -5q-8 -172 -8 -187q0 -4 -11.5 -4t-11.5 4q0 56 -31 91.5t-79 35.5q-37 0 -48 -13t-11 -56v-379q0 -45 16.5 -59.5t73.5 -14.5q4 0 4 -12t-4 -12q-19 0 -72.5 1t-87.5 1q-30 0 -83.5 -1t-74.5 -1q-3 0 -3 12t3 12q56 0 74 14.5t18 59.5v381 q0 44 -11 55.5t-48 11.5q-52 0 -86 -33t-41 -94q0 -4 -12.5 -4t-12.5 4q13 72 13 181q0 6 12 6.5t12 -6.5q0 -23 56 -23q23 0 85.5 -1t98.5 -1q43 0 95 1t69 1q41 0 59.5 5t22.5 24zM1434 729q4 0 4 -12t-4 -12q-18 0 -66.5 1t-75.5 1q-31 0 -77.5 -1t-63.5 -1q-5 0 -5 12 t5 12q52 0 68 14.5t14 59.5l-12 340l-187 -428q-3 -7 -19.5 -7t-19.5 7l-211 405l-10 -289q-6 -102 68 -102q3 0 3 -12t-3 -12q-12 0 -43.5 1t-53.5 1l-110 -2q-3 0 -3 12t3 12q95 0 98 102l12 363q-39 61 -98 61q-5 0 -5 12.5t5 12.5q9 0 40 -2t38 -2q11 0 43 2t35 2 q18 0 32 -12.5t33 -50.5l187 -363l170 393q4 14 16 23.5t23 9.5q1 0 25 -2t42 -2q23 0 52.5 2t43.5 2q3 0 3 -12.5t-3 -12.5q-47 0 -67 -16.5t-19 -67.5l13 -368q2 -46 16 -60t64 -14z" />
<glyph unicode="&#x25fc;" horiz-adv-x="962" d="M0 963h963v-963h-963v963z" />
</font>
</defs>
</svg>
