<?xml version="1.0" standalone="no"?>
<!DOCTYPE svg PUBLIC "-//W3C//DTD SVG 1.1//EN" "http://www.w3.org/Graphics/SVG/1.1/DTD/svg11.dtd" >
<svg xmlns="http://www.w3.org/2000/svg" xmlns:xlink="http://www.w3.org/1999/xlink" version="1.1">
<metadata></metadata>
<defs>
<font id="cormorant_unicaseregular" horiz-adv-x="1181" >
<font-face units-per-em="2048" ascent="1485" descent="-563" />
<missing-glyph horiz-adv-x="479" />
<glyph horiz-adv-x="0" />
<glyph horiz-adv-x="682" />
<glyph unicode=" "  horiz-adv-x="479" />
<glyph unicode="&#x09;" horiz-adv-x="479" />
<glyph unicode="&#xa0;" horiz-adv-x="479" />
<glyph unicode="!" horiz-adv-x="505" d="M160 1270q-1 5 13 9t36 6.5t45 2.5q22 0 44 -2.5t36.5 -6.5t13.5 -9q-25 -124 -43 -299t-24.5 -282t-16.5 -302q0 -6 -15.5 -6t-15.5 6q-22 605 -73 883zM252 -23q-41 0 -64.5 24t-23.5 67q0 39 23.5 61.5t64.5 22.5t64.5 -22.5t23.5 -61.5q0 -43 -23.5 -67t-64.5 -24z " />
<glyph unicode="&#x22;" horiz-adv-x="579" d="M113 748l-25 497q-1 27 69 52q62 22 83 13q5 -3 4 -7l-107 -553q-2 -3 -8 -5t-11 -1.5t-5 4.5zM406 748l-25 497q-1 20 40.5 40.5t76.5 24.5t39 -7l-109 -553q-1 -3 -6.5 -5t-10.5 -1.5t-5 4.5z" />
<glyph unicode="#" horiz-adv-x="1077" d="M948 645q9 0 9 -41t-9 -41h-147l-60 -325h136q9 0 9 -41t-9 -41h-150l-55 -318q-3 -5 -20 -5.5t-37 4t-19 9.5l55 310h-307l-57 -318q-3 -5 -19.5 -5.5t-36 4t-18.5 9.5l55 310h-139q-6 0 -8 20.5t-0.5 41t6.5 20.5h156l57 325h-139q-6 0 -8 20.5t-0.5 41t6.5 20.5h155 l60 342q3 5 20 4.5t36.5 -6.5t18.5 -12l-59 -328h307l60 342q3 5 20 4.5t36.5 -6.5t18.5 -12l-57 -328h133zM666 238l57 325h-307l-58 -325h308z" />
<glyph unicode="$" horiz-adv-x="841" d="M750 252q0 -107 -77.5 -183.5t-211.5 -91.5v-186q0 -13 -22.5 -13t-22.5 13v184h-10q-140 0 -246 72q-16 8 -19 39l-20 201q-1 9 10 10.5t14 -4.5q27 -109 102 -189.5t169 -93.5v432q-5 2 -14.5 7.5t-14.5 7.5q-37 20 -53 29.5t-48 29.5t-47.5 33.5t-37.5 36t-32 43 t-18 48.5t-8 58q0 107 78 171.5t195 74.5v168q0 15 22.5 15t22.5 -15v-166q98 -3 194 -47q18 -7 23.5 -14t7.5 -21l14 -178q0 -9 -10.5 -10.5t-13.5 6.5q-13 72 -73 141.5t-142 87.5v-395l35 -18q35 -19 47 -25.5t43.5 -25t44.5 -29t37 -30t35 -36t24 -38.5t18 -47t5 -52z M252 788q0 -70 43 -119.5t121 -93.5v377q-79 0 -121.5 -45.5t-42.5 -118.5zM461 8q71 3 121.5 45.5t50.5 128.5q0 79 -45 133.5t-127 102.5v-410z" />
<glyph unicode="%" horiz-adv-x="1175" d="M307 455q-109 0 -180.5 77t-71.5 189q0 109 71.5 185.5t180.5 76.5q107 0 176.5 -77.5t69.5 -188.5t-70 -186.5t-176 -75.5zM289 -12q-2 -3 -15 2t-24.5 12.5t-9.5 11.5l653 955q3 5 16 -1t23.5 -14.5t7.5 -11.5zM322 479q36 0 59 16t34 48.5t15 68.5t4 90 q0 126 -35.5 191t-103.5 65q-69 0 -95 -61t-26 -168q0 -250 148 -250zM883 -10q-109 0 -180.5 77t-71.5 189q0 109 71.5 185.5t180.5 76.5q108 0 176.5 -77.5t68.5 -188.5t-69.5 -186.5t-175.5 -75.5zM897 14q36 0 59 16t34.5 48.5t15.5 69t4 90.5q0 256 -140 256 q-47 0 -74 -33t-35.5 -80t-8.5 -117q0 -250 145 -250z" />
<glyph unicode="&#x26;" horiz-adv-x="1091" d="M1087 25q6 0 6 -12.5t-6 -12.5h-210q-65 0 -183 84q-135 -109 -319 -109q-145 0 -218 61.5t-73 151.5q0 44 16.5 83.5t50 75.5t65 61.5t81.5 60.5q-55 72 -74 117q-37 80 -37 149q0 111 83.5 179.5t195.5 68.5q26 0 50.5 -4t51.5 -15t46.5 -28.5t32.5 -47t13 -67.5 q0 -48 -15.5 -87t-57.5 -78.5t-63.5 -56t-85.5 -59.5q-5 -4 -8 -6t-7 -5t-8 -5q97 -138 250 -270q11 -9 38.5 -32t42.5 -34q68 100 68 207q0 127 -125 127q-6 0 -6.5 12.5t6.5 12.5l352 2q6 0 6 -12.5t-6 -12.5q-40 0 -64.5 -6.5t-38 -21t-20 -31t-14.5 -44.5q-1 -6 -2 -9 q-49 -150 -125 -244q96 -67 180.5 -104t130.5 -39zM297 807q0 -114 102 -262q72 57 112 114t40 129q0 70 -38.5 113t-100.5 43q-54 0 -84.5 -34t-30.5 -103zM451 31q119 0 215 73q-42 32 -113 93q-135 118 -242 254q-106 -92 -106 -201q0 -98 69.5 -158.5t176.5 -60.5z" />
<glyph unicode="'" horiz-adv-x="286" d="M113 748l-25 499q-1 26 69 50q64 22 84 12q4 -2 3 -6l-107 -553q-1 -3 -7 -5t-11.5 -1.5t-5.5 4.5z" />
<glyph unicode="(" horiz-adv-x="632" d="M133 623q0 291 113 522t315 340q3 2 7.5 -3t0.5 -9q-295 -281 -295 -850t295 -850q4 -3 -0.5 -9t-7.5 -4q-202 111 -315 342t-113 521z" />
<glyph unicode=")" horiz-adv-x="632" d="M498 623q0 -291 -112 -521.5t-314 -341.5q-3 -2 -8.5 4t-2.5 9q153 145 224 355.5t71 494.5t-71 494.5t-224 355.5q-3 4 2.5 9t8.5 3q202 -109 314 -340t112 -522z" />
<glyph unicode="*" horiz-adv-x="917" d="M463 1083l4 263q0 27 78 51q66 20 79 11q2 -2 1 -5l-142 -320q-1 -6 -10.5 -6t-9.5 6zM418 1047l-250 83q-27 10 -23 101q2 65 14 70q2 0 3 -1l262 -235q3 -3 2.5 -7t-3 -8t-5.5 -3zM864 995l-350 35q-5 0 -7.5 10t1.5 11l254 77q24 7 72 -60q39 -56 34 -71q-1 -3 -4 -2z M281 784q-16 -24 -100 6q-59 21 -64 35q0 3 2 4l303 177q4 4 11.5 -2t4.5 -11zM551 641l-74 344q-2 3 2 7t9 6.5t6 0.5l151 -217q17 -23 -36 -92q-37 -49 -54 -52q-3 0 -4 3z" />
<glyph unicode="+" horiz-adv-x="815" d="M745 500q9 0 9 -40t-9 -40h-296v-297q0 -6 -20.5 -8.5t-41 -1t-20.5 5.5v301h-297q-6 0 -8 20t-0.5 40t6.5 20h299v297q0 9 41 9t41 -9v-297h296z" />
<glyph unicode="," horiz-adv-x="454" d="M209 145q62 0 96.5 -46t34.5 -132q0 -82 -36.5 -152.5t-108.5 -140.5q-5 -4 -11 -1.5t-7.5 7.5t1.5 9q101 104 101 241q0 56 -21 84q-18 -30 -63 -30q-38 0 -59 21.5t-21 57.5q0 82 94 82z" />
<glyph unicode="-" horiz-adv-x="577" d="M66 414q-6 -1 -8.5 21.5t-1.5 46t5 24.5l439 72q6 1 8 -21.5t0 -46t-8 -25.5z" />
<glyph unicode="." horiz-adv-x="405" d="M205 -23q-43 0 -66.5 24t-23.5 67q0 39 24 61.5t66 22.5q41 0 63.5 -22.5t22.5 -61.5q0 -43 -22.5 -67t-63.5 -24z" />
<glyph unicode="/" horiz-adv-x="700" d="M131 -334q-3 -9 -41.5 3t-36.5 20l516 1806q2 3 10.5 3t20.5 -3.5t23 -8t18 -9t6 -7.5z" />
<glyph unicode="0" horiz-adv-x="1120" d="M563 -27q-215 0 -351 142t-136 368q0 221 136.5 358.5t352.5 137.5q213 0 346 -139t133 -363t-134 -364t-347 -140zM588 2q154 0 229.5 120t75.5 331q0 101 -18.5 184t-51 140.5t-77 97.5t-95.5 58.5t-108 18.5q-151 0 -237.5 -125.5t-86.5 -328.5q0 -219 101 -357.5 t268 -138.5z" />
<glyph unicode="1" horiz-adv-x="704" d="M109 0q-6 0 -6 12.5t6 12.5q122 0 158 26t36 115v555q0 51 -4.5 78t-14.5 44t-34 15.5t-55 -12t-86 -35.5q-6 -2 -11.5 3t-6 10.5t4.5 9.5l310 145q7 3 12.5 -3t5.5 -11v-799q0 -90 35 -115.5t162 -25.5q5 0 5 -12.5t-5 -12.5q-31 0 -116.5 2t-139.5 2q-53 0 -139 -2 t-117 -2z" />
<glyph unicode="2" horiz-adv-x="919" d="M76 25q304 255 426.5 406t122.5 286q0 102 -57.5 163.5t-161.5 61.5q-205 0 -281 -256q-1 -4 -7.5 -4.5t-12.5 2t-5 6.5l80 311q2 8 17 2q8 -3 6 -6q-7 -36 2 -47.5t28 -11.5q15 0 92 22.5t146 22.5q132 0 210.5 -70t78.5 -182q0 -34 -7 -66t-27 -67.5t-38.5 -64t-60 -71 t-71.5 -72t-93 -83t-105.5 -89t-126.5 -103.5q-6 -6 -2 -10.5t13 -4.5q347 0 434 13q91 13 120 57q15 21 25 63q1 6 13 5t12 -7l-27 -208q0 -8 -6 -15.5t-14 -7.5h-709q-9 0 -14.5 9t0.5 16z" />
<glyph unicode="3" horiz-adv-x="909" d="M477 449q146 -3 232 -82t86 -193q0 -152 -175 -286t-514 -210q-5 -1 -8.5 5t-3 12t3.5 8q124 28 221.5 69t158 85.5t99.5 97t54.5 100t15.5 97.5q0 102 -65 175.5t-185 73.5q-93 0 -145 -24q-6 -5 -13 3.5t-1 14.5q68 42 182 51q102 70 141 128.5t39 132.5q0 99 -61 163 t-179 64q-107 0 -173 -57t-105 -191q-2 -8 -17 -3q-8 3 -6 7l78 311q2 7 19 1q6 -3 6 -5q-8 -35 2.5 -50t28.5 -15q15 0 98.5 26.5t154.5 26.5q122 0 204.5 -62.5t82.5 -164.5q0 -80 -61 -154t-195 -155z" />
<glyph unicode="4" horiz-adv-x="983" d="M885 90q9 0 8.5 -44t-8.5 -44q-54 4 -170 8v-272q0 -23 -17 -29l-88 -43q-10 -6 -14 -3.5t-4 15.5v334q-145 4 -547 4q-9 0 -14.5 8t0.5 17l649 940q8 9 21.5 5t13.5 -13v-887q52 0 170 4zM145 78q189 0 447 4v684l-457 -674q-5 -6 -2 -10t12 -4z" />
<glyph unicode="5" horiz-adv-x="886" d="M244 831q-28 0 -31 -28l-41 -234q594 -3 594 -342q0 -158 -146.5 -285.5t-480.5 -265.5q-8 -3 -13.5 8t1.5 15q142 62 241.5 125.5t154 125.5t78.5 120.5t24 122.5q0 152 -125 234.5t-361 82.5q-10 0 -16 8t-4 17l65 364q1 10 2.5 13.5t6.5 6t18 3.5q408 43 475 60 q50 12 61 35q3 6 7 17q1 4 7 5t11 -1.5t4 -7.5l-41 -153q-7 -23 -18.5 -29t-38.5 -6z" />
<glyph unicode="6" horiz-adv-x="1026" d="M670 602q139 0 208.5 -75.5t69.5 -186.5q0 -150 -125.5 -258.5t-302.5 -108.5q-181 0 -300.5 146t-119.5 373q0 133 46.5 257.5t133 227.5t222.5 174.5t303 93.5q5 1 8 -3.5t2 -10t-6 -6.5q-140 -28 -250 -97.5t-177.5 -164.5t-102.5 -205t-35 -226q0 -135 41 -253 t119 -192.5t176 -74.5q103 0 163 75t60 200q0 120 -52.5 189t-154.5 69q-56 0 -103 -21t-102 -73q-6 -6 -15.5 1t-6.5 13q110 137 301 137z" />
<glyph unicode="7" horiz-adv-x="974" d="M436 -211q-15 -33 -43 -49l-131 -64q-5 -2 -11 4.5t-3 10.5l567 1149q7 14 -10 14q-133 0 -217 -0.5t-163 -4t-121 -6t-82 -12t-56 -16.5t-32 -25t-21.5 -32t-14.5 -43q-1 -5 -7 -6t-11 2t-4 8l71 295q2 7 18 3q5 -3 5 -5q-6 -35 11 -44.5t85 -9.5h617q9 0 14 -9t2 -17z " />
<glyph unicode="8" horiz-adv-x="1169" d="M682 750q49 -23 77 -37t71.5 -38.5t69.5 -44.5t57 -50t47.5 -60t28 -69t11.5 -82q0 -111 -66 -202.5t-175.5 -142.5t-237.5 -51q-194 0 -317 111.5t-123 263.5q0 124 84 227.5t211 167.5q-88 48 -136 104.5t-48 135.5q0 63 33 115t86.5 83.5t117.5 48.5t131 17 q142 0 226.5 -65.5t84.5 -161.5q0 -86 -65.5 -156.5t-167.5 -113.5zM541 1210q-85 0 -134 -42.5t-49 -118.5q0 -41 17.5 -77.5t41.5 -62.5t69 -55t79 -46.5t92 -45.5q129 71 129 211q0 101 -67 169t-178 68zM625 12q126 0 204 77t78 204q0 46 -12 87t-30.5 72.5t-50 61.5 t-60 51t-71.5 45t-75 39.5t-79.5 38t-75.5 37.5q-187 -110 -187 -319q0 -106 44 -195.5t127 -144t188 -54.5z" />
<glyph unicode="9" horiz-adv-x="1026" d="M340 356q-65 0 -116.5 25t-81.5 66.5t-45 90t-15 99.5q0 149 117 247.5t286 98.5q184 0 305 -144t121 -370q0 -137 -47.5 -266.5t-136 -237t-227 -182.5t-307.5 -98q-5 -1 -8 3.5t-3 10t4 6.5q143 29 256 102t183 172t106.5 213.5t36.5 235.5q0 134 -41 251.5t-119 192 t-176 74.5t-151.5 -66.5t-53.5 -191.5q0 -121 49.5 -197.5t139.5 -76.5q56 0 103 21t102 73q4 2 9.5 0t9.5 -6.5t1 -7.5q-52 -67 -130 -102.5t-171 -35.5z" />
<glyph unicode=":" horiz-adv-x="405" d="M203 674q-40 0 -64 23t-24 65q0 39 24 61.5t64 22.5q42 0 66 -22.5t24 -61.5q0 -42 -24 -65t-66 -23zM203 -23q-40 0 -64 24.5t-24 66.5q0 38 24 61t64 23q41 0 65.5 -23t24.5 -61q0 -42 -24.5 -66.5t-65.5 -24.5z" />
<glyph unicode=";" horiz-adv-x="456" d="M209 674q-42 0 -66 23t-24 65q0 39 24 61.5t66 22.5q41 0 64.5 -22t23.5 -62q0 -42 -23 -65t-65 -23zM209 145q63 0 98 -46t35 -132q0 -84 -37 -153.5t-110 -139.5q-6 -6 -14 1.5t-3 13.5q101 104 101 241q0 57 -19 82q-19 -28 -61 -28q-39 0 -60.5 21.5t-21.5 60.5 q0 79 92 79z" />
<glyph unicode="&#x3c;" horiz-adv-x="833" d="M758 231q14 -6 13 -52q-2 -36 -13 -34l-684 306q-10 5 -10 34t10 35l684 301q9 5 12 -16q6 -38 -6 -61l-6 -7l-594 -252z" />
<glyph unicode="=" horiz-adv-x="958" d="M70 588q-6 0 -8 20t-0.5 40t6.5 20h821q9 0 9 -40t-9 -40h-819zM70 299q-6 0 -8 20.5t-0.5 41t6.5 20.5h821q9 0 9 -41t-9 -41h-819z" />
<glyph unicode="&#x3e;" horiz-adv-x="833" d="M760 518q10 -6 10 -35t-10 -34l-684 -304q-8 -3 -11 13q-8 34 3 61q4 8 8 10l594 254l-594 252q-15 8 -13 55q2 34 13 31z" />
<glyph unicode="?" horiz-adv-x="675" d="M324 1251q-26 0 -43 -7.5t-25.5 -24t-12 -28t-7.5 -34.5q-13 -90 -78 -90q-33 0 -51.5 20.5t-18.5 49.5q0 59 71.5 101t172.5 42q119 0 198.5 -63.5t79.5 -180.5q0 -45 -11.5 -83.5t-35.5 -71.5t-43 -53.5t-53 -52.5q-9 -9 -14 -13q-70 -70 -99.5 -127t-29.5 -127 q0 -46 12 -113q1 -3 -5 -5.5t-12.5 -2.5t-7.5 4q-23 54 -38 126t-15 118q0 40 11.5 74t30.5 58.5t41.5 47.5t45.5 47t42 50.5t30.5 64t11.5 82.5q0 87 -41 139.5t-106 52.5zM319 -23q-41 0 -65.5 24.5t-24.5 66.5q0 38 24.5 61t65.5 23q40 0 64.5 -23t24.5 -61 q0 -42 -24.5 -66.5t-64.5 -24.5z" />
<glyph unicode="@" horiz-adv-x="1472" d="M956 166q-69 0 -95.5 47.5t-12.5 128.5l22 104q-71 -129 -160 -207.5t-167 -78.5q-52 0 -82.5 41t-20.5 123q17 110 85.5 218.5t159.5 177t171 68.5q63 0 98 -43q29 26 35 58q3 6 30 1l7 -3l-84 -461q-15 -60 -1.5 -98.5t67.5 -38.5q90 0 167.5 94t77.5 246 q0 131 -66 240.5t-182 174t-257 64.5q-116 0 -213.5 -45t-161 -122t-98.5 -177t-35 -211q0 -245 156 -394t409 -149q98 0 172.5 20t167.5 74q6 4 11.5 -3.5t0.5 -12.5q-178 -141 -418 -141q-123 0 -230 38t-186.5 108t-125 175t-45.5 232q0 141 55.5 265t147.5 209 t212.5 134t249.5 49q113 0 209.5 -37.5t162 -101.5t102 -149t36.5 -179q0 -175 -110.5 -306.5t-260.5 -131.5zM598 242q83 0 177 117.5t124 252.5q11 55 -12 92.5t-76 34.5q-79 -2 -159 -106t-103 -242q-12 -69 -1 -109t50 -40z" />
<glyph unicode="A" horiz-adv-x="1437" d="M1430 25q9 0 9 -12.5t-9 -12.5q-38 0 -118.5 4t-117.5 4q-44 0 -112 -4t-105 -4q-9 0 -9 12.5t9 12.5q110 0 134.5 31t-15.5 120l-238 502h-385l-176 -418q-51 -126 -8.5 -180.5t180.5 -54.5q9 0 9 -12.5t-9 -12.5q-38 0 -112 4t-130 4q-51 0 -118 -4t-107 -4 q-9 0 -9 12.5t9 12.5q84 0 136 51.5t116 202.5l432 1019q2 5 13.5 5.5t13.5 -5.5l483 -1017q71 -151 119.5 -203.5t114.5 -52.5zM492 721h346l-183 387z" />
<glyph unicode="B" horiz-adv-x="1142" d="M680 721q164 -12 262 -107.5t98 -236.5q0 -165 -116.5 -275t-290.5 -110q-42 0 -148 6t-153 6q-48 0 -130 -2t-112 -2q-6 0 -6 12.5t6 12.5q111 0 143.5 26t32.5 115v948q0 88 -32 114.5t-142 26.5q-6 0 -6 12.5t6 12.5q30 0 111 -3t129 -3q36 0 122 6t119 6 q173 0 257.5 -74t84.5 -196q0 -99 -63 -176t-172 -119zM528 1255q-41 0 -61.5 -3.5t-38 -18t-23.5 -43.5t-6 -80v-389q53 -2 93 -2q150 0 220 76.5t70 203.5q0 116 -61.5 186t-192.5 70zM602 29q295 0 295 299q0 155 -91 251t-251 97q-49 2 -156 -2v-508q0 -52 14.5 -80 t59 -42.5t129.5 -14.5z" />
<glyph unicode="C" horiz-adv-x="1370" d="M850 1303q99 0 199 -19t159 -53q19 -10 23 -17.5t6 -29.5l25 -232q0 -5 -11 -6.5t-12 4.5q-45 158 -167.5 232.5t-301.5 74.5q-234 0 -375 -151t-141 -399q0 -191 79 -353t213 -256t290 -94q147 0 255 81.5t166 248.5q1 6 13 4.5t12 -6.5l-31 -232q-3 -26 -7.5 -33.5 t-22.5 -13.5q-186 -78 -390 -78q-151 0 -276 40.5t-207.5 107t-139.5 155t-82.5 182t-25.5 191.5q0 142 62.5 265.5t166.5 207t240 131.5t281 48z" />
<glyph unicode="D" horiz-adv-x="1415" d="M621 -8q-38 0 -148 6t-160 6q-48 0 -129.5 -2t-111.5 -2q-4 0 -4 12.5t4 12.5q113 0 145.5 26t32.5 115v948q0 88 -32 114.5t-144 26.5q-4 0 -4 12.5t4 12.5q31 0 111 -3t128 -3q47 0 145.5 5t133.5 5q214 0 379.5 -82t254.5 -223.5t89 -316.5q0 -150 -55.5 -277 t-150 -212.5t-221 -133t-267.5 -47.5zM600 23q250 0 404.5 156t154.5 437q0 178 -66 322.5t-192 229.5t-291 85q-132 0 -180.5 -26.5t-48.5 -116.5v-922q0 -90 45 -127.5t174 -37.5z" />
<glyph unicode="E" horiz-adv-x="1099" d="M973 305q1 5 12.5 3.5t11.5 -7.5q-18 -130 -18 -270q0 -17 -7 -24t-24 -7h-858q-6 0 -6 12.5t6 12.5q112 0 143 25.5t31 115.5v948q0 89 -31.5 115t-142.5 26q-6 0 -6 12.5t6 12.5h821q19 0 19 -18l6 -254q0 -4 -12.5 -4t-12.5 4q-7 108 -66.5 168.5t-158.5 60.5h-125 q-102 0 -133 -25.5t-31 -107.5v-418h250q98 0 140 34t42 111q0 5 12.5 5t12.5 -5q0 -45 -1 -95t-1 -70q0 -31 2 -92.5t2 -96.5q0 -6 -12.5 -6t-12.5 6q0 90 -44 129t-146 39h-244v-471q0 -80 30.5 -105.5t129.5 -25.5h164q96 0 163 70t89 192z" />
<glyph unicode="F" horiz-adv-x="1044" d="M930 1262l6 -254q0 -4 -12.5 -4t-12.5 4q-7 108 -66.5 168.5t-158.5 60.5h-125q-99 0 -131.5 -25t-32.5 -100v-448h207q108 0 155.5 34t47.5 109q0 6 11 6t11 -6q0 -45 -1 -94.5t-1 -71.5q0 -31 2 -91.5t2 -96.5q0 -6 -11 -6t-11 6q0 90 -48.5 129t-162.5 39h-201v-447 q0 -65 18 -94.5t69 -42t161 -12.5q5 0 5 -12.5t-5 -12.5q-41 0 -144.5 2t-170.5 2q-48 0 -130.5 -2t-113.5 -2q-4 0 -4 12.5t4 12.5q114 0 146 25.5t32 115.5v948q0 89 -31.5 115t-142.5 26q-6 0 -6 12.5t6 12.5h821q19 0 19 -18z" />
<glyph unicode="G" horiz-adv-x="1464" d="M829 -25q-168 0 -307 51t-230.5 139.5t-141.5 207t-50 254.5q0 197 101.5 352t279 239.5t400.5 84.5q99 0 190.5 -19t149.5 -55q5 -3 9 -5.5t6.5 -5.5t4 -5t2 -6t1 -6t1 -8t0.5 -9l25 -232q0 -5 -12 -6.5t-13 4.5q-44 148 -161.5 227.5t-290.5 79.5q-258 0 -399.5 -149 t-141.5 -410q0 -200 81.5 -357.5t224.5 -244t321 -86.5q79 0 126.5 9t82.5 36t49 75.5t14 127.5q0 55 -2 85.5t-11 58.5t-21.5 40t-41.5 21.5t-63 11.5t-92 2q-8 0 -11 8.5t-0.5 16.5t9.5 8q228 -16 460 -4q8 0 9 -14.5t-9 -14.5q-26 1 -41.5 -1t-28 -12.5t-18.5 -23.5 t-10 -43.5t-5 -64.5t-1 -94q0 -82 7 -129.5t7 -51.5q0 -11 -4 -15t-18 -9q-244 -58 -437 -58z" />
<glyph unicode="H" horiz-adv-x="1554" d="M1481 25q5 0 5 -12.5t-5 -12.5q-30 0 -113.5 2t-132.5 2q-53 0 -135 -2t-111 -2q-6 0 -6 12.5t6 12.5q116 0 148 25.5t32 115.5v479h-786v-479q0 -90 32 -115.5t148 -25.5q6 0 6 -12.5t-6 -12.5q-30 0 -112.5 2t-135.5 2q-49 0 -131 -2t-112 -2q-4 0 -4 12.5t4 12.5 q114 0 147 26t33 115v948q0 88 -32.5 114.5t-145.5 26.5q-4 0 -4 12.5t4 12.5q31 0 111.5 -3t129.5 -3q53 0 136 3t112 3q6 0 6 -12.5t-6 -12.5q-114 0 -147 -28t-33 -117v-424h786v424q0 90 -32.5 117.5t-147.5 27.5q-6 0 -6 12.5t6 12.5q29 0 111 -3t135 -3q49 0 132.5 3 t113.5 3q5 0 5 -12.5t-5 -12.5q-114 0 -147.5 -26.5t-33.5 -114.5v-948q0 -89 33.5 -115t147.5 -26z" />
<glyph unicode="I" horiz-adv-x="679" d="M408 166q0 -90 30.5 -115.5t143.5 -25.5q6 0 6 -12.5t-6 -12.5q-29 0 -110 2t-134 2q-48 0 -130 -2t-112 -2q-6 0 -6 12.5t6 12.5q112 0 144 25.5t32 115.5v948q0 88 -32 114.5t-144 26.5q-6 0 -6 12.5t6 12.5q30 0 112 -3t130 -3q53 0 135 3t109 3q6 0 6 -12.5t-6 -12.5 q-110 0 -142 -27.5t-32 -117.5v-944z" />
<glyph unicode="J" horiz-adv-x="659" d="M573 1280q5 0 5 -12.5t-5 -12.5q-96 0 -123.5 -27.5t-27.5 -117.5v-1167q0 -203 -94.5 -323t-272.5 -120q-69 0 -109 24t-40 64q0 30 18 50t51 20t56 -18.5t33.5 -40t30.5 -40t48 -18.5q71 0 107.5 85.5t36.5 273.5v1214q0 89 -36.5 115t-164.5 26q-4 0 -4 12.5t4 12.5 q36 0 125 -3t141 -3q48 0 121.5 3t99.5 3z" />
<glyph unicode="K" horiz-adv-x="1331" d="M1313 25q6 0 6 -12.5t-6 -12.5h-230h-30q-53 -1 -70.5 11t-68.5 83q-78 109 -152 203l-313 395l-68 -65v-461q0 -90 30.5 -115.5t143.5 -25.5q6 0 6 -12.5t-6 -12.5q-29 0 -109.5 2t-132.5 2q-48 0 -129.5 -2t-111.5 -2q-4 0 -4 12.5t4 12.5q113 0 145.5 26t32.5 115v948 q0 88 -32 114.5t-144 26.5q-4 0 -4 12.5t4 12.5q31 0 111 -3t128 -3q52 0 133.5 3t108.5 3q6 0 6 -12.5t-6 -12.5q-109 0 -141.5 -28t-32.5 -117v-434l438 438q78 78 66 109.5t-119 31.5q-4 0 -4 12.5t4 12.5q28 0 102 -3t136 -3q59 0 127 3t92 3q5 0 5 -12.5t-5 -12.5 q-86 0 -181 -36.5t-176 -116.5l-323 -318l295 -378q56 -72 99.5 -126.5t81 -94.5t64 -67.5t53.5 -45.5t42.5 -27.5t40.5 -14t37 -5t41 -0.5h16z" />
<glyph unicode="L" horiz-adv-x="1091" d="M379 1112v-938q0 -83 30 -107t136 -24h221q117 0 187 72.5t91 199.5q0 3 6 3.5t12.5 -1.5t6.5 -6q-20 -152 -20 -280q0 -18 -6.5 -24.5t-24.5 -6.5h-946q-4 0 -4 12.5t4 12.5q112 0 143 25.5t31 115.5v948q0 89 -31.5 115t-142.5 26q-4 0 -4 12.5t4 12.5q30 0 110.5 -3 t128.5 -3q52 0 133.5 3t108.5 3q6 0 6 -12.5t-6 -12.5q-111 0 -142.5 -27t-31.5 -116z" />
<glyph unicode="M" horiz-adv-x="1712" d="M1663 25q6 0 6 -12.5t-6 -12.5q-30 0 -112 2t-130 2q-47 0 -121.5 -2t-101.5 -2q-4 0 -4 12.5t4 12.5q102 0 131 26t25 115l-37 930l-467 -1082q-4 -8 -17 -8t-18 8l-504 1076l-18 -867q-2 -107 37 -152.5t137 -45.5q5 0 5 -12.5t-5 -12.5q-29 0 -94 2t-105 2 q-37 0 -100.5 -2t-87.5 -2q-6 0 -6 12.5t6 12.5q86 0 125.5 46.5t40.5 151.5l16 951q-60 81 -168 81q-4 0 -4 12.5t4 12.5q24 0 70 -2t61 -2q26 0 62.5 2t42.5 2q28 0 45 -19t49 -87l459 -963l444 1018q22 51 62 51q4 0 31 -2t48 -2q40 0 91.5 2t74.5 2q6 0 6 -12.5 t-6 -12.5q-103 0 -147 -30t-41 -111l41 -948q2 -63 15 -90.5t48 -39t113 -11.5z" />
<glyph unicode="N" horiz-adv-x="1488" d="M1442 1280q6 0 6 -12.5t-6 -12.5q-86 0 -125 -47t-39 -151v-1080q0 -6 -10 -7.5t-13 1.5l-944 1141q-1 1 -16 21v-910q0 -106 36.5 -152t121.5 -46q6 0 6 -12.5t-6 -12.5q-24 0 -84 2t-97 2q-36 0 -99 -2t-89 -2q-6 0 -6 12.5t6 12.5q87 0 124.5 46t37.5 152v959 q-78 73 -162 73q-6 0 -6 12.5t6 12.5q24 0 73 -2t70 -2q29 0 70 2t49 2q16 0 24.5 -7.5t28 -39t41.5 -59.5l791 -967v850q0 105 -36 151.5t-120 46.5q-5 0 -5 12.5t5 12.5q26 0 84.5 -3t95.5 -3q35 0 98.5 3t88.5 3z" />
<glyph unicode="O" horiz-adv-x="1568" d="M750 -25q-191 0 -341 91t-229.5 242t-79.5 331q0 129 43 239t115 187t165.5 131.5t195 80.5t202.5 26q146 0 270 -55t205.5 -146.5t126.5 -208t45 -240.5q0 -140 -58 -266t-155 -216t-229 -143t-276 -53zM823 18q103 0 191.5 38.5t155.5 110t105 182.5t38 247 q0 191 -70.5 340.5t-202 234t-303.5 84.5q-227 0 -354 -145t-127 -399q0 -193 70.5 -350.5t201 -250t295.5 -92.5z" />
<glyph unicode="P" horiz-adv-x="1112" d="M393 174q0 -33 3 -54t13.5 -39t26.5 -28t44.5 -16.5t65 -9t91.5 -2.5q6 0 6 -12.5t-6 -12.5q-40 0 -142 2t-167 2q-48 0 -129.5 -2t-112.5 -2q-4 0 -4 12.5t4 12.5q112 0 144 25.5t32 115.5v948q0 88 -32 114.5t-144 26.5q-4 0 -4 12.5t4 12.5q31 0 111.5 -3t128.5 -3 q30 0 129 6t157 6q89 0 162.5 -19.5t130 -59t88.5 -105t33 -152.5q1 -103 -40 -185t-108 -130t-144.5 -73t-158.5 -25q-61 0 -100 10q-5 1 -5.5 8t2.5 13t7 5q33 -8 74 -8q65 0 121.5 21t101.5 62t71.5 108t26.5 153q0 161 -88.5 253.5t-224.5 92.5q-46 0 -70 -2t-46.5 -9.5 t-32 -23.5t-14.5 -42t-5 -68v-936z" />
<glyph unicode="Q" horiz-adv-x="1568" d="M1526 -328q4 1 7 -4.5t3.5 -10.5t-2.5 -7q-105 -25 -174 -25q-142 0 -298 93t-269 259q-14 -2 -43 -2q-191 0 -341 91t-229.5 242t-79.5 331q0 129 43 239t115 187t165.5 131.5t195 80.5t202.5 26q146 0 270 -55t205.5 -146.5t126.5 -208t45 -240.5q0 -229 -145 -407.5 t-369 -241.5q87 -148 229 -244t269 -96q38 0 74 8zM256 709q0 -192 70.5 -349t200.5 -249.5t294 -92.5q103 0 192.5 38.5t156.5 110t105 182.5t38 247q0 191 -70.5 340t-202.5 234t-305 85q-226 0 -352.5 -145.5t-126.5 -400.5z" />
<glyph unicode="R" horiz-adv-x="1378" d="M1397 25q6 0 6 -12.5t-6 -12.5h-262q-52 0 -192 175t-341 487q-60 -13 -110 -13q-39 0 -93 4v-487q0 -90 30.5 -115.5t143.5 -25.5q6 0 6 -12.5t-6 -12.5q-29 0 -110 2t-131 2q-48 0 -130 -2t-112 -2q-6 0 -6 12.5t6 12.5q112 0 144 25.5t32 115.5v948q0 89 -31.5 115 t-142.5 26q-6 0 -6 12.5t6 12.5q30 0 111 -3t129 -3q36 0 124 6t122 6q167 0 256.5 -68.5t89.5 -189.5q0 -98 -57 -183.5t-152 -137.5q260 -385 407.5 -533.5t274.5 -148.5zM399 702q55 -6 121 -6q142 0 203 60t61 202q0 299 -252 299q-41 0 -63 -4t-39.5 -19t-24 -44 t-6.5 -80v-408z" />
<glyph unicode="S" horiz-adv-x="1005" d="M297 1040q0 -28 6 -54t13 -47t24.5 -43.5t28.5 -37.5t37.5 -36t39.5 -31.5t46 -31t45.5 -28t48.5 -29.5q132 -80 179 -119q127 -113 130 -257q0 -152 -112.5 -251.5t-309.5 -99.5q-151 0 -289 72q-15 9 -18 39l-27 279q-1 6 4.5 8.5t12 1.5t8.5 -6q14 -67 40.5 -126.5 t68.5 -114.5t105.5 -87.5t141.5 -32.5q103 0 173.5 56.5t70.5 179.5q0 56 -17.5 104.5t-40.5 82t-67 70t-75 57t-87 54.5q-7 4 -10 6q-48 29 -73.5 45.5t-66 45.5t-62.5 54t-45.5 59.5t-33.5 74.5t-10 86q0 103 57 177.5t141.5 108.5t182.5 34q126 0 240 -50q32 -13 32 -34 l13 -236q0 -5 -5.5 -7t-11.5 -0.5t-8 7.5q-4 35 -15.5 72t-35 76.5t-55.5 70t-80.5 50.5t-106.5 20q-114 0 -170.5 -67t-56.5 -165z" />
<glyph unicode="T" horiz-adv-x="1298" d="M387 1243q-129 0 -194 -66t-91 -223q-2 -5 -13 -4.5t-11 6.5q8 56 18 180t10 189q0 9 12.5 9.5t12.5 -9.5q0 -45 109 -45q175 -6 411 -6q108 0 231.5 3t164.5 3q74 0 109.5 10t45.5 41q2 7 12.5 7t10.5 -7q-6 -59 -12.5 -192.5t-6.5 -182.5q0 -6 -11 -6t-13 6 q-6 158 -65.5 222.5t-196.5 64.5q-47 0 -75 -1.5t-53 -6.5t-36.5 -13t-20.5 -24t-11.5 -36t-2.5 -52v-944q0 -63 14.5 -91t55 -39t129.5 -11q6 0 6 -12.5t-6 -12.5q-33 0 -121.5 2t-147.5 2q-53 0 -142.5 -2t-123.5 -2q-5 0 -5 12.5t5 12.5q88 0 129 11t56.5 39.5t15.5 90.5 v948q0 32 -2.5 52.5t-12.5 35.5t-21 22.5t-37.5 12t-52 5.5t-73.5 1z" />
<glyph unicode="U" horiz-adv-x="1429" d="M1171 1057q0 198 -178 198q-6 0 -6 12.5t6 12.5q28 0 95 -3t108 -3q36 0 99 3t89 3q4 0 4 -12.5t-4 -12.5q-163 0 -163 -198v-584q0 -235 -131.5 -367.5t-352.5 -132.5q-229 0 -366.5 132t-137.5 354v655q0 89 -31.5 115t-142.5 26q-6 0 -6 12.5t6 12.5q30 0 111 -3 t129 -3q51 0 132.5 3t109.5 3q5 0 5 -12.5t-5 -12.5q-110 0 -142 -27.5t-32 -117.5v-580q0 -241 108.5 -367t306.5 -126q183 0 286 115t103 319v586z" />
<glyph unicode="V" horiz-adv-x="1361" d="M1370 1280q6 0 6 -12.5t-6 -12.5q-69 0 -120.5 -36.5t-86.5 -124.5l-436 -1092q-3 -8 -22.5 -8t-22.5 8l-510 1108q-36 79 -74.5 112t-99.5 33q-4 0 -4 12.5t4 12.5q25 0 80 -3t90 -3q70 0 154 3t106 3q6 0 6 -12.5t-6 -12.5q-173 0 -109 -137l429 -938l368 924 q33 78 0 114.5t-143 36.5q-6 0 -6 12.5t6 12.5q31 0 97 -3t118 -3q40 0 94 3t88 3z" />
<glyph unicode="W" horiz-adv-x="1906" d="M1915 1280q5 0 5 -12.5t-5 -12.5q-70 0 -121.5 -36.5t-87.5 -124.5l-434 -1092q-4 -8 -23 -8t-24 8l-267 582l-231 -582q-3 -8 -22.5 -8t-22.5 8l-510 1108q-37 83 -74 114t-100 31q-4 0 -4 12.5t4 12.5q25 0 80 -3t90 -3q64 0 142 3t102 3q6 0 6 -12.5t-6 -12.5 q-42 0 -67.5 -6t-40.5 -21t-12.5 -42t21.5 -68l435 -936l184 459l-215 469q-36 78 -74.5 111.5t-95.5 33.5q-6 0 -6 12.5t6 12.5q24 0 78.5 -3t87.5 -3q48 0 104 3t72 3q5 0 5 -12.5t-5 -12.5q-65 0 -70.5 -23t37.5 -114l148 -317l122 303q33 82 19 116.5t-82 34.5 q-6 0 -6 12.5t6 12.5q18 0 55.5 -3t77.5 -3q39 0 92 3t86 3q4 0 4 -12.5t-4 -12.5q-69 0 -118 -35.5t-85 -125.5l-141 -351l260 -561l371 918q31 81 -1 118t-138 37q-6 0 -6 12.5t6 12.5q29 0 94 -3t117 -3q39 0 93.5 3t88.5 3z" />
<glyph unicode="X" horiz-adv-x="1333" d="M1300 25q6 0 6 -12.5t-6 -12.5q-25 0 -91 2t-105 2q-59 0 -143.5 -2t-114.5 -2q-6 0 -6 12.5t6 12.5q76 0 96 17.5t-10 61.5l-311 471l-261 -366q-63 -89 -44 -136.5t116 -47.5q6 0 6 -12.5t-6 -12.5q-33 0 -104.5 2t-130.5 2q-35 0 -83.5 -2t-78.5 -2q-6 0 -6 12.5 t6 12.5q141 0 278 186l289 393l-330 502q-56 82 -107.5 115.5t-121.5 33.5q-6 0 -6 12.5t6 12.5q25 0 78 -3t78 -3q60 0 152.5 3t123.5 3q5 0 5 -12.5t-5 -12.5q-76 0 -96.5 -17.5t8.5 -63.5l303 -459l240 342q67 97 52 147.5t-112 50.5q-6 0 -6 12.5t6 12.5q32 0 104.5 -3 t129.5 -3q36 0 85.5 3t78.5 3q4 0 4 -12.5t-4 -12.5q-142 0 -291 -202l-268 -367l342 -516q53 -80 108.5 -112.5t140.5 -32.5z" />
<glyph unicode="Y" horiz-adv-x="1247" d="M1255 1280q6 0 6 -12.5t-6 -12.5q-72 0 -147 -54t-135 -148l-275 -424v-463q0 -90 30.5 -115.5t143.5 -25.5q6 0 6 -12.5t-6 -12.5q-30 0 -110 2t-131 2q-48 0 -130 -2t-112 -2q-6 0 -6 12.5t6 12.5q112 0 144 25.5t32 115.5v432l-340 498q-57 89 -108.5 124t-118.5 35 q-4 0 -4 12.5t4 12.5q24 0 73.5 -3t71.5 -3q60 0 158 3t129 3q4 0 4 -12.5t-4 -12.5q-154 0 -86 -92l330 -485l248 383q60 94 43.5 144t-107.5 50q-4 0 -4 12.5t4 12.5q34 0 107 -3t133 -3q35 0 82 3t75 3z" />
<glyph unicode="Z" horiz-adv-x="1218" d="M113 27l809 1202q6 11 4 13.5t-15 2.5q-146 0 -222.5 -0.5t-167.5 -4.5t-129.5 -8t-88.5 -18t-67 -27t-41.5 -41t-35.5 -54.5t-28 -73.5q-2 -7 -16 -2q-8 2 -6 6l79 319q2 3 8.5 3t12 -2t4.5 -5q-4 -36 17 -46.5t100 -10.5h747q9 0 15 -10.5t0 -16.5l-799 -1198 q-6 -11 -4 -13.5t14 -2.5h520q138 0 210.5 57t94.5 180q2 4 13.5 4t11.5 -4l-29 -260q0 -7 -6 -13.5t-14 -6.5q-303 4 -979 4q-9 0 -13.5 10t1.5 17z" />
<glyph unicode="[" horiz-adv-x="561" d="M180 -217v1681q0 13 3.5 17t15.5 4h284q6 0 6 -12.5t-6 -12.5q-115 0 -149.5 -28t-34.5 -117v-1385q0 -89 34.5 -117t149.5 -28q6 0 6 -12.5t-6 -12.5h-284q-12 0 -15.5 4t-3.5 19z" />
<glyph unicode="\" horiz-adv-x="700" d="M567 -334l-514 1804q-1 3 6 7.5t18 9t22.5 8t19.5 3.5t10 -3l518 -1806q2 -8 -37 -20t-43 -3z" />
<glyph unicode="]" horiz-adv-x="561" d="M381 -217q0 -15 -3.5 -19t-15.5 -4h-286q-4 0 -4 12.5t4 12.5q118 0 151 27.5t33 117.5v1385q0 90 -33 117.5t-151 27.5q-4 0 -4 12.5t4 12.5h286q12 0 15.5 -4t3.5 -17v-1681z" />
<glyph unicode="^" horiz-adv-x="802" d="M682 449q3 -6 -6 -11t-12 0l-263 353l-262 -353q-4 -4 -13 0.5t-7 10.5l260 509q1 10 21.5 10t23.5 -10z" />
<glyph unicode="_" horiz-adv-x="815" d="M70 -156q-6 0 -8 20.5t-0.5 41t6.5 20.5h677q9 0 9 -41t-9 -41h-675z" />
<glyph unicode="`" horiz-adv-x="561" d="M504 901q-237 104 -455 158q-20 5 28 28q65 32 96 31q5 -1 7 -2q22 -13 76 -46.5t85 -52t79.5 -46t93.5 -49.5q3 -3 3.5 -8.5t-3.5 -10.5t-10 -2z" />
<glyph unicode="a" horiz-adv-x="978" d="M942 113q6 3 11 -2t4.5 -11t-5.5 -10l-213 -102q-12 -4 -16 -4q-28 0 -51 40t-27 105l-153 -78q-124 -65 -195 -65q-62 0 -103.5 33t-41.5 96q0 60 43 95.5t149 76.5l299 114v289q0 124 -36.5 182t-114.5 58q-81 0 -132 -63.5t-63 -147.5q-6 -30 -26 -54t-56 -24 q-33 0 -53.5 20t-18.5 46q0 53 70.5 117t172.5 108.5t185 44.5q90 0 142.5 -56t52.5 -169v-523q0 -75 17.5 -110t58.5 -35q26 0 100 29zM485 82l158 74v4v215l-256 -103q-45 -19 -65.5 -43t-20.5 -69q0 -50 24 -76.5t68 -26.5q37 0 92 25z" />
<glyph unicode="b" horiz-adv-x="1019" d="M631 530q311 -22 311 -239q0 -133 -106.5 -216t-274.5 -83q-32 0 -132 6t-144 6q-40 0 -113 -2t-100 -2q-4 0 -4 12.5t4 12.5q99 0 127 25.5t28 115.5v627q0 89 -28 115t-125 26q-4 0 -4 12t4 12q27 0 99 -3t112 -3q36 0 115.5 6.5t121.5 6.5q147 0 229.5 -53.5 t82.5 -151.5q0 -77 -54 -138t-149 -92zM469 938q-72 0 -95.5 -29t-23.5 -121v-258h96q67 0 110.5 7t79.5 26.5t52.5 58t16.5 97.5q0 219 -236 219zM524 25q283 0 283 219q0 118 -85 185t-265 67q-72 0 -107 -4v-326q0 -77 35.5 -109t138.5 -32z" />
<glyph unicode="c" horiz-adv-x="1101" d="M637 983q78 0 167 -15.5t144 -43.5q14 -6 18.5 -12.5t6.5 -22.5l18 -211q0 -6 -10.5 -7.5t-11.5 5.5q-73 276 -375 276q-163 0 -268 -123.5t-105 -314.5q0 -94 26.5 -183t77.5 -163t135 -119t189 -45q125 0 212 69.5t126 213.5q1 7 13 5.5t12 -7.5l-27 -217 q-2 -18 -6.5 -24t-22.5 -13q-160 -56 -327 -56q-119 0 -216 32.5t-158.5 84t-103.5 120t-59.5 136t-17.5 135.5q0 214 161 357t402 143z" />
<glyph unicode="d" horiz-adv-x="1163" d="M561 -8q-37 0 -132 6t-142 6q-41 0 -114.5 -2t-100.5 -2q-4 0 -4 12.5t4 12.5q99 0 127 25.5t28 115.5v627q0 89 -28 115t-125 26q-4 0 -4 12t4 12q27 0 99.5 -3t113.5 -3t125.5 5.5t124.5 5.5q259 0 406 -134t147 -344q0 -215 -148.5 -354t-380.5 -139zM537 20 q191 0 298 115.5t107 327.5q0 97 -24.5 180.5t-74 150t-132.5 104.5t-191 38q-94 0 -132 -32t-38 -116v-600q0 -91 38 -129.5t149 -38.5z" />
<glyph unicode="e" horiz-adv-x="901" d="M834 111q2 1 4.5 0t5 -3.5t4 -5.5t2 -6.5t-1.5 -5.5q-143 -115 -318 -115q-110 0 -199 41.5t-144 110.5t-84 155t-29 179q0 218 146 369t364 151q121 0 190.5 -64t69.5 -169q0 -48 -25 -48l-590 -2q-20 -70 -20 -163q0 -215 106 -353.5t289 -138.5q136 0 230 68zM514 938 q-98 0 -169.5 -54.5t-106.5 -156.5l462 8q1 96 -50 149.5t-136 53.5z" />
<glyph unicode="f" horiz-adv-x="876" d="M805 942q0 -36 2 -119t2 -106q0 -6 -11.5 -6t-11.5 6q-11 99 -69 157t-148 58h-59q-102 0 -132 -26.5t-30 -114.5v-304q112 1 194.5 5.5t119 9t38.5 4.5q13 0 13 -43q0 -47 -13 -47q-2 0 -38 5.5t-119 12t-195 8.5v-268q0 -65 15 -94.5t56.5 -42t131.5 -12.5q6 0 6 -12.5 t-6 -12.5q-35 0 -123.5 2t-142.5 2q-37 0 -108 -2t-105 -2q-4 0 -4 12.5t4 12.5q97 0 125 26t28 115v627q0 88 -28.5 114.5t-124.5 26.5q-4 0 -4 12t4 12h714q19 0 19 -16z" />
<glyph unicode="g" horiz-adv-x="1138" d="M608 -25q-124 0 -227 41.5t-169 110.5t-102 156t-36 180q0 242 159.5 381t430.5 139q186 0 294 -63q18 -11 21 -46l18 -192q0 -5 -10.5 -7t-11.5 5q-85 272 -361 272q-180 0 -287.5 -123.5t-107.5 -339.5q0 -215 118.5 -349t317.5 -134q79 0 122 8.5t70 38t34.5 75 t7.5 130.5q0 28 -1.5 43.5t-8.5 29.5t-17.5 20t-33 11t-49.5 6t-72 1q-8 0 -11 8t-0.5 16t9.5 8q182 -13 376 -4q9 0 9.5 -14t-9.5 -14q-31 1 -45 -1.5t-23 -18.5t-10.5 -38t-1.5 -73q0 -82 4.5 -130t4.5 -51v-5t-0.5 -3.5l-1 -3t-2 -2.5t-2.5 -2t-3 -2t-3.5 -1.5t-5 -2 t-5.5 -2.5q-133 -58 -379 -58z" />
<glyph unicode="h" horiz-adv-x="1273" d="M1202 25q6 0 6 -12.5t-6 -12.5q-27 0 -100.5 2t-114.5 2q-45 0 -117.5 -2t-97.5 -2q-6 0 -6 12.5t6 12.5q98 0 125 25.5t27 115.5v299h-574v-299q0 -89 28 -115t126 -26q4 0 4 -12.5t-4 -12.5q-26 0 -99 2t-118 2q-41 0 -114.5 -2t-100.5 -2q-4 0 -4 12.5t4 12.5 q98 0 126.5 26t28.5 115v627q0 88 -28.5 114.5t-124.5 26.5q-4 0 -4 12t4 12q27 0 99.5 -3t113.5 -3q45 0 118.5 3t98.5 3q4 0 4 -12t-4 -12q-96 0 -125 -28.5t-29 -117.5v-286h574v286q0 90 -28 118t-124 28q-6 0 -6 12t6 12q25 0 97.5 -3t117.5 -3q41 0 114.5 3t100.5 3 q6 0 6 -12t-6 -12q-98 0 -126.5 -26.5t-28.5 -114.5v-627q0 -89 28.5 -115t126.5 -26z" />
<glyph unicode="i" horiz-adv-x="602" d="M365 166q0 -90 27 -115.5t126 -25.5q4 0 4 -12.5t-4 -12.5q-26 0 -99.5 2t-119.5 2q-41 0 -114.5 -2t-100.5 -2q-6 0 -6 12.5t6 12.5q98 0 127 26t29 115v627q0 88 -29 114.5t-127 26.5q-6 0 -6 12t6 12q27 0 100.5 -3t114.5 -3q47 0 120.5 3t98.5 3q4 0 4 -12t-4 -12 q-96 0 -124.5 -28t-28.5 -118v-622z" />
<glyph unicode="j" horiz-adv-x="548" d="M225 45v748q0 88 -27 114.5t-122 26.5q-4 0 -4 12t4 12q27 0 99 -3t112 -3q46 0 116.5 3t94.5 3q6 0 6 -12t-6 -12q-91 0 -118.5 -28.5t-27.5 -117.5v-647q0 -153 -26.5 -247.5t-86 -155.5t-169.5 -109q-4 -1 -8 4t-4.5 10t1.5 7q80 43 123 145.5t43 249.5z" />
<glyph unicode="k" horiz-adv-x="1105" d="M1096 25q4 0 4 -12.5t-4 -12.5h-217q-61 0 -70 4q-15 5 -37 41q-81 131 -176 252l-162 205l-84 -82v-254q0 -89 28 -115t126 -26q4 0 4 -12.5t-4 -12.5q-26 0 -99 2t-118 2q-41 0 -114.5 -2t-100.5 -2q-4 0 -4 12.5t4 12.5q98 0 126.5 26t28.5 115v627q0 88 -28.5 114.5 t-124.5 26.5q-4 0 -4 12t4 12q27 0 99.5 -3t113.5 -3q45 0 118.5 3t98.5 3q4 0 4 -12t-4 -12q-96 0 -125 -28.5t-29 -117.5v-317l326 326q34 34 51.5 54.5t26.5 38t0.5 26.5t-30.5 13.5t-62 4.5q-6 0 -6 12t6 12q26 0 87 -3t123 -3q60 0 119.5 3t67.5 3q6 0 6 -12t-6 -12 q-69 0 -164.5 -38.5t-175.5 -115.5l-199 -194l144 -180q185 -238 235 -291q66 -70 123 -83q28 -7 74 -7z" />
<glyph unicode="l" horiz-adv-x="948" d="M348 791v-617q0 -86 28 -113.5t122 -27.5h137q106 0 170.5 68t87.5 184q1 6 13 5t12 -7q-15 -102 -15 -252q0 -17 -7 -24t-24 -7h-800q-4 0 -4 12.5t4 12.5q95 0 122 25.5t27 115.5v627q0 88 -27 114.5t-122 26.5q-4 0 -4 12t4 12q27 0 99.5 -3t113.5 -3q45 0 118.5 3 t98.5 3q4 0 4 -12t-4 -12q-98 0 -126 -27t-28 -116z" />
<glyph unicode="m" horiz-adv-x="1818" d="M1796 25q4 0 4 -12.5t-4 -12.5q-25 0 -97.5 2t-119.5 2q-43 0 -114 -2t-95 -2q-6 0 -6 12.5t6 12.5q96 0 124 26t28 115v438q0 324 -224 324q-173 0 -309 -168q8 -39 8 -94v-500q0 -90 27 -115.5t125 -25.5q6 0 6 -12.5t-6 -12.5q-24 0 -96 2t-119 2q-43 0 -114 -2 t-97 -2q-5 0 -5 12.5t5 12.5q96 0 125 26t29 115v438q0 324 -224 324q-165 0 -303 -160v-602q0 -90 27.5 -115.5t126.5 -25.5q4 0 4 -12.5t-4 -12.5q-25 0 -97.5 2t-119.5 2q-43 0 -114 -2t-97 -2q-4 0 -4 12.5t4 12.5q96 0 123.5 25.5t27.5 115.5v627q0 89 -28 115t-127 26 q-4 0 -4 12t4 12q25 0 73.5 -1t75.5 -1q20 0 48.5 1t41.5 1q26 0 32.5 -6.5t6.5 -31.5v-117q171 182 359 182q105 0 176 -50t98 -147q175 197 371 197q136 0 212 -81t76 -238v-500q0 -89 28 -115t126 -26z" />
<glyph unicode="n" horiz-adv-x="1222" d="M1198 25q6 0 6 -12.5t-6 -12.5q-22 0 -85 2t-101 2q-46 0 -117 -2t-94 -2q-6 0 -6 12.5t6 12.5q94 0 122.5 28t28.5 117v408q0 102 -19.5 172.5t-56.5 108.5t-82.5 53.5t-107.5 15.5q-91 0 -170.5 -38t-165.5 -130v-590q0 -90 26.5 -117.5t119.5 -27.5q6 0 6 -12.5 t-6 -12.5q-25 0 -97 2t-116 2q-40 0 -112.5 -2t-98.5 -2q-4 0 -4 12.5t4 12.5q96 0 124.5 26t28.5 115v627q0 88 -27 114.5t-122 26.5q-4 0 -4 12t4 12q23 0 67.5 -1t67.5 -1t54 1t46 1q25 0 32 -6.5t7 -31.5v-119q182 182 391 182q149 0 241.5 -83.5t92.5 -254.5v-479 q0 -89 22.5 -115t100.5 -26z" />
<glyph unicode="o" d="M563 -25q-144 0 -257 69t-172.5 182t-59.5 247q0 121 50.5 220.5t132 161t177.5 95t193 33.5q109 0 201.5 -42.5t152.5 -111.5t93.5 -156.5t33.5 -178.5q0 -138 -73.5 -258t-199 -190.5t-272.5 -70.5zM616 18q159 0 255 113t96 313q0 136 -46 247t-140 180t-222 69 q-164 0 -254 -110t-90 -306q0 -141 47 -255t139.5 -182.5t214.5 -68.5z" />
<glyph unicode="p" horiz-adv-x="946" d="M348 174q0 -65 15 -94.5t56.5 -42t131.5 -12.5q6 0 6 -12.5t-6 -12.5q-35 0 -123 2t-141 2q-41 0 -114.5 -2t-100.5 -2q-4 0 -4 12.5t4 12.5q97 0 125 26t28 115v627q0 88 -28.5 114.5t-124.5 26.5q-4 0 -4 12t4 12q27 0 99.5 -3t113.5 -3q35 0 120 6.5t119 6.5 q330 0 338 -248q2 -60 -17.5 -110.5t-53 -84.5t-78.5 -58t-92 -35t-95 -11q-54 0 -90 8q-4 1 -5 8t2 13.5t9 5.5q35 -7 66 -7q90 0 151.5 58.5t61.5 169.5q0 130 -65.5 196t-178.5 66q-40 0 -60 -3.5t-38 -17.5t-24.5 -44.5t-6.5 -82.5v-614z" />
<glyph unicode="q" d="M1233 -322q4 1 7 -4t3.5 -9.5t-2.5 -6.5q-92 -25 -172 -25q-123 0 -254 90t-223 252h-29q-144 0 -257 69.5t-172.5 182.5t-59.5 248q0 120 51 219.5t132.5 160.5t177.5 94.5t192 33.5q109 0 201 -42t152 -111.5t93 -156.5t33 -179q0 -163 -100 -297.5t-258 -190.5 q70 -147 186.5 -240.5t226.5 -93.5q45 0 72 6zM215 524q0 -141 47 -255.5t139.5 -183.5t214.5 -69q158 0 253.5 113.5t95.5 312.5q0 137 -45.5 247.5t-138.5 179.5t-220 69q-165 0 -255.5 -108.5t-90.5 -305.5z" />
<glyph unicode="r" horiz-adv-x="1091" d="M1112 25q4 0 4 -12.5t-4 -12.5h-240q-37 0 -131.5 124t-222.5 339q-39 -8 -86 -8q-53 0 -80 4v-293q0 -90 27 -115.5t125 -25.5q4 0 4 -12.5t-4 -12.5q-26 0 -98.5 2t-118.5 2q-40 0 -114 -2t-101 -2q-4 0 -4 12.5t4 12.5q98 0 125.5 25.5t27.5 115.5v627q0 89 -27.5 115 t-123.5 26q-4 0 -4 12t4 12q27 0 100 -3t113 -3q37 0 123 6.5t120 6.5q132 0 202.5 -51t70.5 -148q0 -83 -47 -152.5t-127 -111.5q169 -277 269.5 -377t213.5 -100zM352 496q44 -7 94 -7q126 0 175 56t49 166q0 225 -193 225q-78 0 -101.5 -33.5t-23.5 -114.5v-292z" />
<glyph unicode="s" horiz-adv-x="802" d="M242 793q0 -38 14 -72t33 -57.5t55 -49t61.5 -40t71.5 -37.5q43 -23 63.5 -34.5t57 -34.5t55 -42t39.5 -46.5t30 -59t9 -68.5q0 -119 -93.5 -198t-250.5 -79q-143 0 -246 72q-15 7 -18 39l-21 201q-1 9 10.5 10.5t14.5 -4.5q29 -120 113 -202.5t190 -82.5q45 0 82.5 15 t65.5 55.5t28 101.5q0 41 -14.5 77t-34 61t-56.5 53t-62 43t-72 41q-37 20 -53 29.5t-48 29.5t-47.5 33.5t-37.5 36.5t-32 43.5t-18 48.5t-8 59q0 116 90 182t219 66q102 0 205 -47q18 -7 23.5 -14t7.5 -21l14 -178q0 -9 -12 -10.5t-13 6.5q-10 51 -43 103t-92 91t-125 39 q-74 0 -114.5 -44.5t-40.5 -114.5z" />
<glyph unicode="t" horiz-adv-x="768" d="M725 98q5 4 10 0.5t5.5 -9t-3.5 -9.5q-84 -57 -147 -81t-133 -24q-55 0 -100.5 14t-85 45t-61.5 88t-22 136v537q0 72 -17.5 90t-88.5 18q-8 0 -8 13.5t8 13.5q83 0 139 43t60 110q0 7 15 6.5t15 -6.5v-149q173 3 371 18q14 0 14 -43q0 -13 -3 -27t-7.5 -23t-9.5 -7 q-172 42 -365 45v-573q0 -143 55 -212t169 -69q108 0 190 55z" />
<glyph unicode="u" horiz-adv-x="1261" d="M1190 958q4 0 4 -12t-4 -12q-97 0 -126.5 -26.5t-29.5 -114.5v-627q0 -89 27.5 -115t122.5 -26q6 0 6 -12.5t-6 -12.5q-22 0 -65.5 1t-67.5 1q-23 0 -55 -1t-46 -1q-26 0 -32.5 6.5t-6.5 32.5v119q-180 -183 -389 -183q-146 0 -242 78t-96 213v527q0 89 -22 115t-101 26 q-5 0 -5 12t5 12q23 0 87.5 -3t101.5 -3q44 0 115.5 3t95.5 3q5 0 5 -12t-5 -12q-94 0 -123 -28.5t-29 -117.5v-454q0 -303 269 -303q89 0 167.5 38.5t165.5 129.5v589q0 90 -27 118t-120 28q-4 0 -4 12t4 12q25 0 97 -3t116 -3q41 0 113.5 3t99.5 3z" />
<glyph unicode="v" horiz-adv-x="1046" d="M1055 958q5 0 5 -12t-5 -12q-60 0 -102 -33t-74 -117l-310 -782q-3 -8 -22.5 -8t-22.5 8l-372 786q-41 86 -71.5 116t-84.5 30q-6 0 -6 12t6 12q26 0 81 -3t87 -3q48 0 115 3t92 3q6 0 6 -12t-6 -12q-148 0 -88 -125l311 -647l242 635q27 72 -1.5 104.5t-123.5 32.5 q-5 0 -5 12t5 12q25 0 82 -3t104 -3q34 0 81.5 3t76.5 3z" />
<glyph unicode="w" horiz-adv-x="1474" d="M1483 958q6 0 6 -12t-6 -12q-62 0 -105.5 -34.5t-79.5 -125.5l-305 -772q-3 -8 -22.5 -8t-22.5 8l-205 432l-174 -432q-3 -8 -22 -8t-23 8l-372 786q-41 86 -71.5 116t-84.5 30q-6 0 -6 12t6 12q25 0 79.5 -3t78.5 -3q38 0 89.5 3t67.5 3q5 0 5 -12t-5 -12 q-23 0 -37 -10.5t-18 -38.5t20 -76l320 -655l125 325l-146 309q-43 90 -67.5 118t-71.5 28q-4 0 -4 12t4 12q22 0 71 -3t75 -3q29 0 72 3t57 3q5 0 5 -12t-5 -12q-45 0 -49 -15q-5 -17 34 -102l4 -8l95 -195l67 183q30 79 24 108t-50 29q-6 0 -6 12t6 12q12 0 42 -3t54 -3 q34 0 78 3t73 3q5 0 5 -12t-5 -12q-66 0 -106 -31.5t-74 -118.5l-86 -215l203 -415l235 630q56 150 -69 150q-4 0 -4 12t4 12q20 0 62 -3t73 -3q35 0 83.5 3t78.5 3z" />
<glyph unicode="x" horiz-adv-x="1030" d="M1006 25q6 0 6 -12.5t-6 -12.5q-20 0 -75.5 2t-74.5 2q-49 0 -116.5 -2t-90.5 -2q-6 0 -6 12.5t6 12.5q65 0 73.5 14t-26.5 65l-213 318l-176 -258q-24 -35 -33 -58.5t-4 -43t33 -28.5t80 -9q6 0 6 -12.5t-6 -12.5q-28 0 -94 2t-117 2q-30 0 -71.5 -2t-67.5 -2 q-5 0 -5 12.5t5 12.5q54 0 114.5 37.5t116.5 113.5l199 277l-223 335q-52 78 -107.5 112t-101.5 34q-5 0 -5 12t5 12q21 0 64 -3t63 -3q48 0 128 3t103 3q5 0 5 -12t-5 -12q-65 0 -74 -15t25 -67l201 -299l164 242q24 37 33.5 61t4.5 42.5t-32 27t-78 8.5q-6 0 -6 12t6 12 q30 0 93.5 -3t113.5 -3q30 0 71 3t66 3q6 0 6 -12t-6 -12q-122 0 -232 -152l-184 -258l238 -354q52 -78 107 -111.5t100 -33.5z" />
<glyph unicode="y" horiz-adv-x="1046" d="M1055 958q5 0 5 -12t-5 -12q-61 0 -103 -33t-73 -117l-310 -782q-45 -120 -117 -214.5t-151 -133.5q-7 -2 -25.5 11.5t-29.5 33.5q-8 16 -12.5 34.5t-3.5 31.5t6 14q106 20 178 66.5t116 146.5l-378 796q-41 86 -71.5 116t-84.5 30q-6 0 -6 12t6 12q26 0 81 -3t87 -3 q47 0 114.5 3t92.5 3q5 0 5 -12t-5 -12q-46 0 -72 -11.5t-33.5 -39.5t15.5 -74l315 -649l240 637q27 72 -1.5 104.5t-123.5 32.5q-5 0 -5 12t5 12q25 0 82 -3t104 -3q34 0 81.5 3t76.5 3z" />
<glyph unicode="z" horiz-adv-x="925" d="M82 27l577 886q4 8 5 11t-2.5 4.5t-12.5 1.5q-90 0 -146 -0.5t-111.5 -5.5t-84.5 -8.5t-60 -18t-44.5 -25t-32 -38t-28 -49t-27.5 -64.5q-2 -8 -17 -2q-8 3 -6 6l74 295q2 7 16 2q8 -2 6 -6q-5 -36 17.5 -47t101.5 -11h494q9 0 14 -9t0 -17l-573 -881q-6 -11 -4 -14.5 t14 -3.5h285q148 0 206.5 44.5t90.5 180.5q3 5 13.5 4.5t10.5 -6.5l-22 -240q0 -7 -5.5 -13.5t-13.5 -6.5l-723 4q-9 0 -13.5 10t1.5 17z" />
<glyph unicode="{" horiz-adv-x="591" d="M66 610q-6 0 -6 13.5t6 13.5q42 5 72.5 34.5t47 70t26.5 102t12.5 115t2.5 124.5q0 133 11 208.5t45.5 121t85.5 59t143 13.5q8 0 8 -12.5t-8 -12.5q-73 0 -113.5 -56.5t-42.5 -160.5q-3 -118 -5 -169.5t-6.5 -126t-14 -104t-24.5 -71.5t-39.5 -62t-56.5 -42t-79 -43 q33 -15 58 -28.5t46 -32t36.5 -34.5t28 -42.5t20 -48t14 -60t9.5 -70t6 -86.5t4 -100t3 -119v-2q2 -104 42.5 -160.5t113.5 -56.5q8 0 8 -12.5t-8 -12.5q-62 0 -103.5 6t-75 23.5t-52.5 44t-32 74t-17.5 107.5t-4.5 149q0 72 -2.5 126t-12.5 115t-26.5 101.5t-47 69.5 t-72.5 34z" />
<glyph unicode="|" horiz-adv-x="344" d="M135 -293v1575q0 14 40 14t40 -14v-1575q0 -13 -40 -13t-40 13z" />
<glyph unicode="}" horiz-adv-x="579" d="M514 610q-42 -5 -72.5 -34t-47.5 -69.5t-26.5 -101.5t-12.5 -115t-3 -126q0 -89 -4 -149t-17 -107.5t-31.5 -74t-52.5 -44t-75 -23.5t-104 -6q-8 0 -8 12.5t8 12.5q73 0 113 56.5t42 160.5q2 130 4.5 191t10.5 138t21 110t38.5 73.5t61 63t90.5 47.5 q-153 68 -186.5 169.5t-39.5 448.5q-2 104 -42 160.5t-113 56.5q-8 0 -8 12.5t8 12.5q92 0 143 -13.5t85 -59t45 -121t11 -208.5q0 -70 3 -124t12.5 -115t26.5 -102t47.5 -70.5t72.5 -34.5q6 0 6 -13.5t-6 -13.5z" />
<glyph unicode="~" horiz-adv-x="913" d="M647 492q40 0 72 13.5t46 26.5t38 39q2 2 6 -0.5t7 -6.5t1 -7q-76 -94 -121.5 -126t-101.5 -32q-59 0 -162.5 38t-165.5 38q-20 0 -37 -3.5t-26.5 -5.5t-25.5 -13.5t-19 -14t-22.5 -21.5t-22.5 -22q-1 -1 -3.5 -0.5t-5 2.5t-4.5 4t-2.5 4.5t0.5 4.5q44 60 104 107.5 t128 47.5q43 0 149 -36.5t168 -36.5z" />
<glyph unicode="&#xa1;" horiz-adv-x="505" d="M256 748q40 0 64 -23.5t24 -65.5q0 -39 -24 -61.5t-64 -22.5q-42 0 -66 22.5t-24 61.5q0 42 24 65.5t66 23.5zM348 -543q0 -7 -30.5 -13.5t-65.5 -6.5q-21 0 -43 3t-36 7.5t-13 9.5q56 291 82 881q0 8 15 8t15 -8q27 -617 76 -881z" />
<glyph unicode="&#xa2;" horiz-adv-x="1101" d="M987 287q1 7 13 5.5t12 -7.5l-27 -217q-2 -18 -6.5 -24t-22.5 -13q-160 -56 -327 -56h-19v-184q0 -13 -22.5 -13t-22.5 13v186q-105 8 -190.5 44.5t-140.5 87.5t-92 116.5t-52.5 129.5t-15.5 128q0 196 138.5 335t352.5 161v170q0 15 22.5 15t22.5 -15v-166h27 q78 0 167 -15.5t144 -43.5q14 -6 18.5 -12.5t6.5 -22.5l18 -211q0 -6 -10.5 -7.5t-11.5 5.5q-36 136 -129 204.5t-230 71.5v-946q12 -2 39 -2q125 0 212 69.5t126 213.5zM221 514q0 -84 21.5 -165t62.5 -151t108.5 -120t151.5 -66v938q-152 -10 -248 -132t-96 -304z" />
<glyph unicode="&#xa3;" horiz-adv-x="884" d="M754 254q0 4 6 4.5t12 -1.5t6 -5q-18 -103 -18 -221q0 -17 -7 -24t-24 -7h-666q-5 0 -5 12t5 13q106 27 144.5 71.5t36.5 126.5q0 107 -39 226h-96q-15 0 -15 22.5t15 22.5h81q-34 108 -34 186t28.5 137.5t78 95t110.5 53t131 17.5q94 0 184 -33q30 -12 33 -39l14 -206 q0 -9 -10.5 -9t-13.5 9q-9 46 -26.5 87.5t-45 78.5t-69.5 59t-93 22q-53 0 -92.5 -18t-61 -48.5t-32 -65.5t-10.5 -75q0 -20 1.5 -38.5t4.5 -39t5.5 -34.5t8.5 -37t9 -32.5t10.5 -36t9.5 -33.5h231q13 0 13 -22.5t-13 -22.5h-219q20 -75 20 -146q0 -81 -27.5 -130t-78.5 -89 h258q130 0 173.5 31t66.5 139z" />
<glyph unicode="&#xa4;" horiz-adv-x="847" d="M743 129l-61 -55l-96 112q-83 -53 -185 -53q-82 0 -149 41l-92 -100l-47 49l90 94q-78 81 -78 197q0 109 80 186l-103 102l58 52l104 -111q76 43 168 43q91 0 162 -47l100 109l45 -46l-100 -100q76 -79 76 -190q0 -107 -74 -181zM440 168q72 0 115 53t43 148 q0 113 -57.5 197.5t-155.5 84.5q-70 0 -109.5 -49t-39.5 -145q0 -70 20 -133.5t68.5 -109.5t115.5 -46z" />
<glyph unicode="&#xa5;" horiz-adv-x="985" d="M967 958q5 0 5 -12t-5 -12q-138 0 -246 -184l-168 -277v-37h211q15 0 15 -21.5t-15 -21.5h-553q-13 0 -13 21.5t13 21.5h217l-229 352q-54 81 -98 113.5t-107 32.5q-4 0 -4 12t4 12q20 0 67 -3t68 -3q53 0 142 3t116 3q5 0 5 -12t-5 -12q-130 0 -74 -88l224 -340l141 246 q46 83 30.5 132.5t-81.5 49.5q-6 0 -6 12t6 12q30 0 94 -3t117 -3q28 0 66.5 3t62.5 3zM764 313q15 0 15 -21.5t-15 -21.5h-211v-104q0 -48 5.5 -73t25.5 -41.5t52.5 -21.5t92.5 -5q5 0 5 -12.5t-5 -12.5q-31 0 -110.5 2t-129.5 2q-45 0 -127 -2t-112 -2q-6 0 -6 12.5 t6 12.5q113 0 145.5 26t32.5 115v104h-217q-13 0 -13 21.5t13 21.5h553z" />
<glyph unicode="&#xa6;" horiz-adv-x="344" d="M135 631v651q0 14 40 14t40 -14v-651q0 -15 -40 -15t-40 15zM135 -293v629q0 14 40 14t40 -14v-629q0 -13 -40 -13t-40 13z" />
<glyph unicode="&#xa7;" horiz-adv-x="903" d="M655 133q82 -79 82 -176q0 -68 -26.5 -121t-71.5 -85t-99 -48t-114 -16q-104 0 -180 37q-21 17 -21 34l-16 201q0 6 11 6t11 -6q16 -74 95 -149.5t174 -75.5q62 0 100.5 36.5t38.5 114.5q0 58 -27 106.5t-70 84t-95 68.5t-104.5 69.5t-95.5 78t-70 102.5t-27 134 q0 79 28.5 138t108.5 133q-76 79 -76 174q0 68 26.5 121t70.5 85t97.5 48t112.5 16q108 0 178 -39q23 -12 23 -33l16 -200q0 -6 -12 -6t-12 6q-5 33 -28.5 71.5t-58 73t-83.5 57.5t-99 23q-60 0 -96.5 -36.5t-36.5 -115.5q0 -58 26.5 -106.5t69 -83.5t94 -68.5t103 -70 t94 -78.5t69 -103t26.5 -135q0 -76 -28.5 -135t-107.5 -131zM246 602q0 -73 25.5 -132.5t71.5 -103.5t91.5 -76t106.5 -71t94 -67q57 67 57 176q0 74 -25.5 134t-71.5 103.5t-91.5 76t-105 71.5t-93.5 69q-59 -69 -59 -180z" />
<glyph unicode="&#xa8;" horiz-adv-x="659" d="M152 977q-41 0 -65 23t-24 63q0 38 24 61t65 23q39 0 61.5 -22.5t22.5 -61.5q0 -40 -22 -63t-62 -23zM510 977q-40 0 -64 23t-24 63q0 38 24 60t64 22t62 -22t22 -60q0 -40 -22 -63t-62 -23z" />
<glyph unicode="&#xa9;" horiz-adv-x="1390" d="M715 -150q-84 0 -169 23t-163.5 72t-139.5 118.5t-97.5 169t-36.5 216.5q0 137 55 256t146.5 200t212 127.5t249.5 46.5q115 0 212.5 -37.5t162.5 -101.5t101 -149t36 -179q0 -126 -65 -234.5t-181.5 -173.5t-257.5 -65q-94 0 -167 28t-115 75.5t-63 103t-21 115.5 q0 79 31 145.5t82 109t113 66t126 23.5q74 0 134 -28.5t61 -71.5q0 -26 -17 -43t-43 -17q-41 0 -72 51q-18 26 -28.5 38.5t-34.5 25t-55 12.5q-90 0 -128 -67t-38 -193q0 -67 16 -122t50 -100t94.5 -70t142.5 -25q69 0 131.5 22t113.5 64.5t81 112.5t30 159 q0 131 -64.5 240.5t-179 174t-253.5 64.5q-158 0 -274.5 -73t-174 -193t-57.5 -270q0 -141 53 -256t137.5 -184t182 -105.5t194.5 -36.5q122 0 209.5 19t196.5 77q3 2 8 -4.5t2 -9.5q-110 -84 -222 -115t-247 -31z" />
<glyph unicode="&#xaa;" horiz-adv-x="569" d="M553 834q5 2 9.5 -2t5 -9t-2.5 -8l-139 -65q-21 -8 -39 14.5t-22 69.5l-84 -46q-71 -40 -117 -40q-42 0 -67 22.5t-25 56.5t25 55t91 44l177 63v113q0 50 -7.5 82t-23 46t-30 18.5t-36.5 4.5q-39 0 -63.5 -29t-34.5 -75q-3 -15 -6 -23.5t-13.5 -17t-27.5 -8.5 q-23 0 -37 12.5t-14 30.5q0 47 91 97t161 50q52 0 84 -37t32 -110v-240q0 -69 24 -82t89 13zM274 813l91 45v109l-144 -56q-32 -13 -43.5 -23.5t-11.5 -31.5q0 -25 15.5 -40t41.5 -15q30 0 51 12zM532 643q9 0 9 -27.5t-9 -27.5h-460q-6 0 -8 14t-0.5 27.5t6.5 13.5h462z " />
<glyph unicode="&#xab;" horiz-adv-x="933" d="M483 154l-362 307q-9 7 -9 21.5t9 23.5l362 305q6 8 14 -2q4 -5 1 -8l-250 -318l250 -317q1 -3 -1.5 -7.5t-6.5 -6t-7 1.5zM795 154l-363 307q-9 7 -9 21.5t9 23.5l363 305q3 4 7.5 2.5t6.5 -5.5t0 -7l-250 -318l250 -317q2 -3 -0.5 -7.5t-6.5 -6t-7 1.5z" />
<glyph unicode="&#xac;" horiz-adv-x="808" d="M745 621v-392q0 -6 -20.5 -8t-40.5 -0.5t-20 6.5v312h-594q-6 0 -8 20.5t-0.5 41t6.5 20.5h677z" />
<glyph unicode="&#xad;" horiz-adv-x="661" d="M66 340q-6 -1 -8.5 21t-1.5 45.5t5 25.5l535 94q6 1 8 -21t0 -45t-8 -24z" />
<glyph unicode="&#xae;" horiz-adv-x="1454" d="M766 1065q172 0 306 -77.5t204 -204.5t70 -279q0 -133 -51 -252.5t-137 -205t-203 -135.5t-246 -50q-88 0 -173.5 24.5t-162.5 74.5t-136 119.5t-93.5 166.5t-34.5 209q0 131 54.5 246t145 194t210 124.5t247.5 45.5zM766 -82q229 0 365.5 143.5t136.5 382.5 q0 246 -162 409t-406 163q-121 0 -218 -41.5t-158.5 -112.5t-94 -161.5t-32.5 -192.5q0 -111 33.5 -207.5t90 -165.5t129.5 -118.5t154 -74t162 -24.5zM1112 152q3 0 3 -8.5t-3 -8.5h-162q-37 0 -205 334q-46 -11 -112 -8v-211q0 -61 18 -76.5t86 -15.5q5 0 5 -11.5 t-5 -11.5q-18 0 -66.5 1t-80.5 1q-26 0 -79 -1t-69 -1q-3 0 -3 11.5t3 11.5q69 0 87 15.5t18 76.5v440q0 57 -19 74.5t-86 17.5q-3 0 -3 11.5t3 11.5q20 0 71 -1t77 -1q25 0 85 4t83 4q186 0 186 -135q0 -122 -113 -180q32 -63 49 -95t41 -75t38.5 -63.5t34.5 -45t37 -35 t37.5 -19t43.5 -11.5zM633 498q112 -16 165.5 13t53.5 118q0 155 -129 155q-30 0 -43 -2t-26 -11t-17 -29t-4 -56v-188z" />
<glyph unicode="&#xaf;" horiz-adv-x="706" d="M96 989q-12 0 -12 29t12 29h514q14 0 14 -29t-14 -29h-514z" />
<glyph unicode="&#xb0;" horiz-adv-x="679" d="M342 764q-126 0 -204.5 76t-78.5 190q0 108 79 184t204 76t202 -75.5t77 -188.5q0 -112 -77.5 -187t-201.5 -75zM356 786q38 0 65.5 11.5t43.5 30t25 49t11.5 61t2.5 74.5q0 256 -174 256q-46 0 -76.5 -17t-46 -50.5t-21.5 -72t-6 -92.5q0 -117 39.5 -183.5t136.5 -66.5z " />
<glyph unicode="&#xb1;" horiz-adv-x="815" d="M70 524q-6 0 -8 20.5t-0.5 41t6.5 20.5h299v297q0 9 41 9t41 -9v-297h296q9 0 9 -41t-9 -41h-296v-297q0 -6 -20.5 -8t-41 -0.5t-20.5 6.5v299h-297zM745 125q9 0 9 -37t-9 -37h-675q-6 0 -8 18.5t-0.5 37t6.5 18.5h677z" />
<glyph unicode="&#xb2;" horiz-adv-x="514" d="M63 836q12 42 43.5 94t66.5 99t68.5 96.5t55.5 103t22 100.5q0 57 -27.5 88t-74.5 31q-49 0 -85.5 -33t-49.5 -82q-2 -9 -16 -5q-10 3 -7 9q43 156 195 156q80 0 122 -41t42 -104q0 -52 -39 -116.5t-87.5 -115.5t-97.5 -110t-63 -97q0 -8 4 -8q73 0 110 0.5t74.5 5 t51 9.5t28.5 20.5t20 30t13 45.5q0 3 7 3t7 -3l-2 -178q0 -9 -10 -9h-362q-13 0 -9 11z" />
<glyph unicode="&#xb3;" horiz-adv-x="514" d="M287 1174q157 -36 157 -160q0 -82 -55.5 -142.5t-152.5 -60.5q-79 0 -126 39t-63 102q-2 8 10 10.5t15 -4.5q12 -43 49.5 -75.5t99.5 -32.5q55 0 90 32.5t35 106.5q0 77 -42.5 122.5t-110.5 45.5q-6 0 -6 11.5t6 11.5q60 0 93 46.5t33 102.5q0 52 -28.5 85.5t-75.5 33.5 q-48 0 -84 -34t-49 -83q-1 -4 -7 -4.5t-11.5 2.5t-4.5 8q19 70 66.5 113t126.5 43q76 0 121 -41.5t45 -105.5q0 -58 -36 -104t-95 -68z" />
<glyph unicode="&#xb4;" horiz-adv-x="563" d="M57 901q-6 -3 -10 2t-3.5 10.5t3.5 8.5q76 38 200 113t134 81q14 9 86 -21q53 -23 50 -33l-5 -3q-218 -54 -455 -158z" />
<glyph unicode="&#xb6;" horiz-adv-x="1177" d="M659 0q-156 0 -281 61t-196 171t-71 247q0 202 156.5 340.5t391.5 138.5q23 0 93 -3t98 -3q47 0 126 3t109 3q5 0 5 -12t-5 -12q-88 0 -135 -43t-47 -123v-580q0 -78 47 -120.5t135 -42.5q5 0 5 -12.5t-5 -12.5q-30 0 -109 2t-126 2q-28 0 -98 -2t-93 -2zM731 94 q0 -27 19 -38t38 0.5t19 39.5v766q0 28 -19 39.5t-38 0t-19 -39.5v-768z" />
<glyph unicode="&#xb7;" horiz-adv-x="405" d="M203 393q-40 0 -64 24t-24 66q0 38 24 61t64 23q41 0 65.5 -23t24.5 -61q0 -42 -24 -66t-66 -24z" />
<glyph unicode="&#xb8;" horiz-adv-x="475" d="M236 -4q-13 -39 -20 -61.5t-7.5 -43.5t1 -30t16.5 -23.5t26 -21.5t43 -25q52 -30 82.5 -66t30.5 -92q0 -76 -54 -136t-159 -60q-57 0 -94.5 21t-37.5 59q0 26 18.5 42.5t43.5 16.5t40 -15.5t21.5 -33.5t25 -33.5t48.5 -15.5q32 0 50 19.5t18 56.5q0 54 -38 96t-136 96 q-26 13 -28.5 21.5t9.5 39.5q18 43 72 191z" />
<glyph unicode="&#xb9;" horiz-adv-x="536" d="M96 825q-6 0 -6 11.5t6 11.5q96 0 118 22t22 119v242q0 118 -4 137q-8 32 -39 28q-27 -5 -111 -42q-4 -2 -9 3t-6 10.5t3 8.5l237 115q6 3 12.5 -3t6.5 -11v-488q0 -97 20.5 -119t110.5 -22q6 0 6 -11.5t-6 -11.5q-22 0 -80 2t-94 2q-38 0 -101.5 -2t-85.5 -2z" />
<glyph unicode="&#xba;" horiz-adv-x="647" d="M313 735q-117 0 -188.5 83t-71.5 202q0 66 26 119.5t68.5 85t91.5 48.5t99 17q116 0 187 -82t71 -194q0 -116 -84 -197.5t-199 -81.5zM344 766q74 0 118 56.5t44 154.5q0 118 -58.5 199t-148.5 81q-74 0 -115 -51.5t-41 -146.5q0 -118 57.5 -205.5t143.5 -87.5zM76 588 q-5 0 -7 14t-0.5 27.5t5.5 13.5h499q7 0 7 -27.5t-7 -27.5h-497z" />
<glyph unicode="&#xbb;" horiz-adv-x="933" d="M139 811l363 -305q9 -9 9 -23.5t-9 -21.5l-363 -307q-3 -4 -7.5 -2.5t-6.5 6t0 8.5l250 315l-250 320q-2 4 4 9.5t10 0.5zM451 811l362 -305q9 -9 9 -23.5t-9 -21.5l-362 -307q-4 -8 -13 2q-4 5 -2 10l250 315l-250 320q-1 2 2 6t7 5.5t6 -1.5z" />
<glyph unicode="&#xbc;" horiz-adv-x="1228" d="M457 655q6 0 6 -11t-6 -11q-22 0 -80 2t-94 2q-38 0 -101.5 -2t-85.5 -2q-6 0 -6 11t6 11q95 0 117.5 22.5t22.5 119.5v243v29q0 116 -19 128.5t-135 -36.5q-8 -3 -13.5 8t1.5 15l237 114q6 3 12.5 -3t6.5 -11v-487q0 -97 20.5 -119.5t110.5 -22.5zM899 1284q4 4 15 1 t23 -9.5t11 -9.5l-571 -1266q-2 -4 -15 0.5t-25 11.5t-11 11zM1171 23q1 0 1 -12.5t-1 -12.5q-18 0 -57 1t-67 1q-33 0 -86 -1t-74 -1q-5 0 -5 12.5t5 12.5q73 0 91.5 10t18.5 51v104q-175 5 -258 5q-5 0 -8 4.5t2 9.5l322 455q3 4 13.5 3t10.5 -6v-428q9 0 92 5q5 0 5 -28 t-5 -28q-62 4 -92 4v-100q0 -40 14 -50.5t78 -10.5zM815 223q80 0 182 4v303l-188 -301q-3 -6 6 -6z" />
<glyph unicode="&#xbd;" horiz-adv-x="1249" d="M96 633q-6 0 -6 11t6 11q95 0 117.5 22.5t22.5 119.5v243v29q0 116 -19 128.5t-135 -36.5q-8 -3 -13.5 8t1.5 15l237 114q6 3 12.5 -3t6.5 -11v-487q0 -97 20.5 -119.5t110.5 -22.5q6 0 6 -11t-6 -11q-22 0 -80 2t-94 2q-38 0 -101.5 -2t-85.5 -2zM377 0q-2 -4 -15 0.5 t-25 11.5t-11 11l573 1261q4 4 15 1t23 -9.5t11 -9.5zM801 12q14 50 58 118t86.5 123.5t77 125t34.5 127.5q0 56 -29 87.5t-76 31.5q-50 0 -86.5 -33t-48.5 -84q-1 -5 -7.5 -5.5t-12 2.5t-4.5 7q50 156 196 156q80 0 122 -40.5t42 -105.5q0 -42 -25.5 -91.5t-63.5 -95 t-78 -88.5t-74 -87t-46 -76q0 -8 6 -8h85.5t64 2.5t49 4.5t34 9t24.5 13t15.5 20t12.5 26t10 35q0 4 7.5 4t7.5 -4l-4 -176q0 -10 -9 -10h-362q-12 0 -6 12z" />
<glyph unicode="&#xbe;" horiz-adv-x="1206" d="M446 821q0 -81 -56.5 -140.5t-153.5 -59.5q-79 0 -126 38.5t-63 102.5q-1 5 5 8t12.5 2t7.5 -6q13 -42 50.5 -74.5t98.5 -32.5q55 0 91 32.5t36 105.5q0 77 -43 122.5t-110 45.5q-7 0 -7 12t7 12q58 0 92.5 47t34.5 103q0 50 -30 83t-77 33q-46 0 -83 -33.5t-48 -80.5 q-1 -5 -7.5 -6t-12.5 2t-5 8q19 69 66.5 112t126.5 43q77 0 122.5 -41.5t45.5 -105.5q0 -58 -37.5 -104.5t-97.5 -67.5q161 -32 161 -160zM877 1284q4 4 15.5 1t24 -9.5t11.5 -9.5l-574 -1266q-1 -4 -14 0.5t-25 11.5t-10 11zM1149 23q3 0 3 -12.5t-3 -12.5q-17 0 -56.5 1 t-66.5 1q-34 0 -88 -1t-74 -1q-3 0 -3 12.5t3 12.5q73 0 92 10t19 51v104q-175 5 -256 5q-6 0 -9 4.5t1 9.5l321 455q3 4 15 3t12 -6v-428q7 0 90 5q6 0 6 -28t-6 -28q-58 4 -90 4v-100q0 -40 13.5 -50.5t76.5 -10.5zM793 223q84 0 182 4v301l-187 -299q-3 -6 5 -6z" />
<glyph unicode="&#xbf;" horiz-adv-x="669" d="M352 737q42 0 65 -23t23 -65q0 -40 -23.5 -62t-64.5 -22t-64.5 22t-23.5 62q0 42 23 65t65 23zM348 -537q26 0 43 8t25.5 24.5t11.5 29.5t6 35q13 90 78 90q35 0 53.5 -20.5t18.5 -49.5q0 -59 -72 -101t-174 -42q-120 0 -199.5 63.5t-79.5 180.5q0 45 11 83t35.5 71.5 t43.5 53.5t53 52q10 9 15 14q71 68 101 125.5t30 128.5q0 23 -12 113q-1 3 4 5.5t11 2.5t7 -4q25 -53 39.5 -125t14.5 -119q0 -46 -15.5 -85t-39 -64.5t-51 -55t-51 -56.5t-39 -69.5t-15.5 -93.5q0 -89 40.5 -142t106.5 -53z" />
<glyph unicode="&#xc0;" horiz-adv-x="1437" d="M444 1548q-17 3 23 23q64 32 102 36q7 1 9 -1q24 -15 95.5 -59.5t125 -76t110.5 -59.5q4 -3 4.5 -8.5t-3.5 -10.5t-9 -3q-210 95 -457 159zM1430 25q9 0 9 -12.5t-9 -12.5q-38 0 -118.5 4t-119.5 4q-44 0 -110.5 -4t-104.5 -4q-9 0 -9 12.5t9 12.5q111 0 136 31t-15 122 l-236 500h-389l-176 -420q-51 -123 -7.5 -178t179.5 -55q9 0 9 -12.5t-9 -12.5q-38 0 -112 4t-130 4q-51 0 -118 -4t-107 -4q-9 0 -9 12.5t9 12.5q85 0 136.5 51.5t115.5 202.5l434 1019q2 4 13 4t14 -4l481 -1017q69 -151 118.5 -203.5t115.5 -52.5zM492 721h350l-185 389z " />
<glyph unicode="&#xc1;" horiz-adv-x="1437" d="M500 1389q-9 -3 -12.5 8t4.5 14q57 28 112.5 60.5t120.5 73.5t98 61q13 8 89 -25q53 -23 48 -31q0 -1 -4 -2q-244 -63 -456 -159zM1430 25q9 0 9 -12.5t-9 -12.5q-38 0 -118.5 4t-119.5 4q-44 0 -110.5 -4t-104.5 -4q-9 0 -9 12.5t9 12.5q111 0 136 31t-15 122l-236 500 h-389l-176 -420q-51 -123 -7.5 -178t179.5 -55q9 0 9 -12.5t-9 -12.5q-38 0 -112 4t-130 4q-51 0 -118 -4t-107 -4q-9 0 -9 12.5t9 12.5q85 0 136.5 51.5t115.5 202.5l434 1019q2 4 13 4t14 -4l481 -1017q69 -151 118.5 -203.5t115.5 -52.5zM492 721h350l-185 389z" />
<glyph unicode="&#xc2;" horiz-adv-x="1437" d="M477 1327q-6 -2 -13 6q-4 6 1 8l211 199q9 9 22.5 9t22.5 -9l211 -199q2 -2 0.5 -6t-5.5 -7t-7 -1l-222 117zM1430 25q9 0 9 -12.5t-9 -12.5q-38 0 -118.5 4t-119.5 4q-44 0 -110.5 -4t-104.5 -4q-9 0 -9 12.5t9 12.5q111 0 136 31t-15 122l-236 500h-389l-176 -420 q-51 -123 -7.5 -178t179.5 -55q9 0 9 -12.5t-9 -12.5q-38 0 -112 4t-130 4q-51 0 -118 -4t-107 -4q-9 0 -9 12.5t9 12.5q85 0 136.5 51.5t115.5 202.5l434 1019q2 4 13 4t14 -4l481 -1017q69 -151 118.5 -203.5t115.5 -52.5zM492 721h350l-185 389z" />
<glyph unicode="&#xc3;" horiz-adv-x="1437" d="M442 1427q-2 -2 -6 0.5t-7 7t-1 7.5q99 127 176 127q29 0 115.5 -24.5t140.5 -24.5q33 0 54.5 13t46.5 40q2 2 6 0.5t7 -6t1 -8.5q-54 -74 -89 -100.5t-75 -26.5q-42 0 -128 25.5t-140 25.5q-13 0 -24.5 -2.5t-19 -5t-17 -10t-13.5 -11t-14 -14t-13 -13.5zM1430 25 q9 0 9 -12.5t-9 -12.5q-38 0 -118.5 4t-119.5 4q-44 0 -110.5 -4t-104.5 -4q-9 0 -9 12.5t9 12.5q111 0 136 31t-15 122l-236 500h-389l-176 -420q-51 -123 -7.5 -178t179.5 -55q9 0 9 -12.5t-9 -12.5q-38 0 -112 4t-130 4q-51 0 -118 -4t-107 -4q-9 0 -9 12.5t9 12.5 q85 0 136.5 51.5t115.5 202.5l434 1019q2 4 13 4t14 -4l481 -1017q69 -151 118.5 -203.5t115.5 -52.5zM492 721h350l-185 389z" />
<glyph unicode="&#xc4;" horiz-adv-x="1437" d="M520 1466q-40 0 -63 22.5t-23 63.5q0 37 23.5 59.5t62.5 22.5q41 0 63.5 -22.5t22.5 -59.5q0 -41 -22.5 -63.5t-63.5 -22.5zM879 1466q-41 0 -63.5 22.5t-22.5 63.5q0 37 22.5 59.5t63.5 22.5q39 0 61.5 -22.5t22.5 -59.5q0 -41 -22 -63.5t-62 -22.5zM1430 25 q9 0 9 -12.5t-9 -12.5q-38 0 -118.5 4t-119.5 4q-44 0 -110.5 -4t-104.5 -4q-9 0 -9 12.5t9 12.5q111 0 136 31t-15 122l-236 500h-389l-176 -420q-51 -123 -7.5 -178t179.5 -55q9 0 9 -12.5t-9 -12.5q-38 0 -112 4t-130 4q-51 0 -118 -4t-107 -4q-9 0 -9 12.5t9 12.5 q85 0 136.5 51.5t115.5 202.5l434 1019q2 4 13 4t14 -4l481 -1017q69 -151 118.5 -203.5t115.5 -52.5zM492 721h350l-185 389z" />
<glyph unicode="&#xc5;" horiz-adv-x="1437" d="M690 1360q-81 0 -130.5 49t-49.5 115q0 73 62 115t137 42q74 0 127 -47t53 -114q0 -72 -61 -116t-138 -44zM668 1661q-68 0 -68 -96q0 -70 33 -126.5t88 -56.5q39 0 56.5 24t17.5 77q0 73 -37 125.5t-90 52.5zM1430 25q9 0 9 -12.5t-9 -12.5q-38 0 -118.5 4t-119.5 4 q-44 0 -110.5 -4t-104.5 -4q-9 0 -9 12.5t9 12.5q111 0 136 31t-15 122l-236 500h-389l-176 -420q-51 -123 -7.5 -178t179.5 -55q9 0 9 -12.5t-9 -12.5q-38 0 -112 4t-130 4q-51 0 -118 -4t-107 -4q-9 0 -9 12.5t9 12.5q85 0 136.5 51.5t115.5 202.5l434 1019q2 4 13 4 t14 -4l481 -1017q69 -151 118.5 -203.5t115.5 -52.5zM492 721h350l-185 389z" />
<glyph unicode="&#xc6;" horiz-adv-x="1792" d="M1665 305q0 3 6.5 3.5t12.5 -1.5t6 -6q-21 -151 -21 -270q0 -18 -6.5 -24.5t-24.5 -6.5h-835q-6 0 -6 12.5t6 12.5q112 0 143 25.5t31 115.5v479h-352l-265 -387q-158 -233 97 -233q9 0 9 -12.5t-9 -12.5q-39 0 -115.5 4t-134.5 4q-46 0 -107 -4t-96 -4q-9 0 -9 12.5 t9 12.5q65 0 144.5 64t158.5 181l623 906q32 48 22 61q-13 17 -120 18h-35q-5 0 -5 12.5t5 12.5h807q18 0 18 -18l4 -254q0 -4 -11 -4t-11 4q-5 97 -67.5 163t-154.5 66h-110q-102 0 -134 -24t-32 -101v-426h231q99 0 142 34t43 111q0 5 11 5t11 -5q0 -45 -1 -95t-1 -70 q0 -31 3 -92.5t3 -96.5q0 -6 -12 -6t-12 6q0 90 -44.5 129t-148.5 39h-225v-471q0 -80 31.5 -105.5t130.5 -25.5h149q88 0 158 73.5t90 188.5zM653 686h324v475z" />
<glyph unicode="&#xc7;" horiz-adv-x="1370" d="M1257 334q1 6 13 4t12 -8l-29 -230q-5 -26 -9.5 -33.5t-22.5 -13.5q-186 -78 -390 -78h-38q-11 -34 -17 -53.5t-4.5 -38.5t2.5 -26.5t17.5 -22t25.5 -19.5t41 -24q52 -30 82.5 -66t30.5 -92q0 -76 -53 -136t-158 -60q-58 0 -95.5 21t-37.5 59q0 25 18 42t43 17 q24 0 39.5 -15.5t22 -33.5t25 -33.5t48.5 -15.5q70 0 70 76q0 55 -38 96.5t-138 95.5q-25 13 -27.5 22.5t8.5 38.5q27 66 64 170q-137 9 -249.5 53t-187.5 110.5t-127 152t-75 175.5t-23 183q0 142 62.5 266t166.5 207.5t239 131t280 47.5q98 0 199.5 -19.5t162.5 -52.5 q18 -11 23 -18.5t6 -28.5l23 -232q0 -5 -11 -6.5t-12 4.5q-45 158 -168 232.5t-303 74.5q-234 0 -374 -151t-140 -399q0 -190 79.5 -352.5t213.5 -256.5t289 -94q147 0 255 81.5t166 248.5z" />
<glyph unicode="&#xc8;" horiz-adv-x="1099" d="M344 1548q-19 3 24 25q64 31 99 34q6 0 8 -1q29 -17 98 -60t124 -75t112 -60q6 -3 2.5 -14t-12.5 -8q-213 96 -455 159zM973 305q1 5 12.5 3.5t11.5 -7.5q-20 -148 -20 -270q0 -18 -6.5 -24.5t-24.5 -6.5h-858q-4 0 -4 12.5t4 12.5q113 0 144.5 25.5t31.5 115.5v948 q0 89 -31.5 115t-144.5 26q-4 0 -4 12.5t4 12.5h821q21 0 21 -18l4 -254q0 -4 -11 -4t-14 4q-4 108 -63.5 168.5t-157.5 60.5h-127q-102 0 -133 -25.5t-31 -107.5v-416h250q98 0 140 33.5t42 109.5q0 5 11.5 5t11.5 -5q0 -45 -1 -94t-1 -71q0 -31 3 -92t3 -97q0 -6 -12.5 -6 t-12.5 6q0 90 -44 129t-148 39h-242v-471q0 -80 30 -105.5t128 -25.5h166q96 0 163 70t89 192z" />
<glyph unicode="&#xc9;" horiz-adv-x="1099" d="M399 1389q-6 -2 -10.5 3t-4 10.5t4.5 8.5q75 37 198 112t136 83t88 -25q51 -22 48 -31q-1 -1 -5 -2q-249 -64 -455 -159zM973 305q1 5 12.5 3.5t11.5 -7.5q-20 -148 -20 -270q0 -18 -6.5 -24.5t-24.5 -6.5h-858q-4 0 -4 12.5t4 12.5q113 0 144.5 25.5t31.5 115.5v948 q0 89 -31.5 115t-144.5 26q-4 0 -4 12.5t4 12.5h821q21 0 21 -18l4 -254q0 -4 -11 -4t-14 4q-4 108 -63.5 168.5t-157.5 60.5h-127q-102 0 -133 -25.5t-31 -107.5v-416h250q98 0 140 33.5t42 109.5q0 5 11.5 5t11.5 -5q0 -45 -1 -94t-1 -71q0 -31 3 -92t3 -97q0 -6 -12.5 -6 t-12.5 6q0 90 -44 129t-148 39h-242v-471q0 -80 30 -105.5t128 -25.5h166q96 0 163 70t89 192z" />
<glyph unicode="&#xca;" horiz-adv-x="1099" d="M377 1403q-2 -1 -6 2t-6 6.5t0 5.5l210 199q9 9 23.5 9t22.5 -9l210 -199q3 -2 2 -6t-5 -7t-7 -1l-221 119zM973 305q1 5 12.5 3.5t11.5 -7.5q-20 -148 -20 -270q0 -18 -6.5 -24.5t-24.5 -6.5h-858q-4 0 -4 12.5t4 12.5q113 0 144.5 25.5t31.5 115.5v948q0 89 -31.5 115 t-144.5 26q-4 0 -4 12.5t4 12.5h821q21 0 21 -18l4 -254q0 -4 -11 -4t-14 4q-4 108 -63.5 168.5t-157.5 60.5h-127q-102 0 -133 -25.5t-31 -107.5v-416h250q98 0 140 33.5t42 109.5q0 5 11.5 5t11.5 -5q0 -45 -1 -94t-1 -71q0 -31 3 -92t3 -97q0 -6 -12.5 -6t-12.5 6 q0 90 -44 129t-148 39h-242v-471q0 -80 30 -105.5t128 -25.5h166q96 0 163 70t89 192z" />
<glyph unicode="&#xcb;" horiz-adv-x="1099" d="M418 1466q-40 0 -63 22.5t-23 63.5q0 37 23.5 59.5t62.5 22.5q41 0 63.5 -22.5t22.5 -59.5q0 -41 -22.5 -63.5t-63.5 -22.5zM776 1466q-40 0 -63 22.5t-23 63.5q0 37 23.5 59.5t62.5 22.5t61.5 -22.5t22.5 -59.5q0 -41 -22 -63.5t-62 -22.5zM973 305q1 5 12.5 3.5 t11.5 -7.5q-20 -148 -20 -270q0 -18 -6.5 -24.5t-24.5 -6.5h-858q-4 0 -4 12.5t4 12.5q113 0 144.5 25.5t31.5 115.5v948q0 89 -31.5 115t-144.5 26q-4 0 -4 12.5t4 12.5h821q21 0 21 -18l4 -254q0 -4 -11 -4t-14 4q-4 108 -63.5 168.5t-157.5 60.5h-127q-102 0 -133 -25.5 t-31 -107.5v-416h250q98 0 140 33.5t42 109.5q0 5 11.5 5t11.5 -5q0 -45 -1 -94t-1 -71q0 -31 3 -92t3 -97q0 -6 -12.5 -6t-12.5 6q0 90 -44 129t-148 39h-242v-471q0 -80 30 -105.5t128 -25.5h166q96 0 163 70t89 192z" />
<glyph unicode="&#xcc;" horiz-adv-x="679" d="M541 1389q-206 95 -455 159q-18 3 24 24q63 32 99 35q6 0 8 -1q29 -17 98 -60t124 -75t112 -60q4 -3 4.5 -8.5t-4 -10.5t-10.5 -3zM408 166q0 -90 31 -115.5t143 -25.5q6 0 6 -12.5t-6 -12.5q-30 0 -110.5 2t-133.5 2q-49 0 -130 -2t-112 -2q-6 0 -6 12.5t6 12.5 q111 0 143.5 26t32.5 115v948q0 88 -33 114.5t-143 26.5q-6 0 -6 12.5t6 12.5q31 0 112 -3t130 -3q53 0 135 3t109 3q6 0 6 -12.5t-6 -12.5q-109 0 -141.5 -28t-32.5 -117v-944z" />
<glyph unicode="&#xcd;" horiz-adv-x="679" d="M141 1389q-9 -3 -12.5 8t2.5 14q75 37 198 112t136 83t87 -24q54 -23 49 -32l-5 -2q-242 -63 -455 -159zM408 166q0 -90 31 -115.5t143 -25.5q6 0 6 -12.5t-6 -12.5q-30 0 -110.5 2t-133.5 2q-49 0 -130 -2t-112 -2q-6 0 -6 12.5t6 12.5q111 0 143.5 26t32.5 115v948 q0 88 -33 114.5t-143 26.5q-6 0 -6 12.5t6 12.5q31 0 112 -3t130 -3q53 0 135 3t109 3q6 0 6 -12.5t-6 -12.5q-109 0 -141.5 -28t-32.5 -117v-944z" />
<glyph unicode="&#xce;" horiz-adv-x="679" d="M109 1417l210 199q7 9 22 9t24 -9l210 -199q2 -2 0.5 -6t-5.5 -7t-7 -1l-221 119l-221 -119q-6 -2 -13 6q-4 6 1 8zM408 166q0 -90 31 -115.5t143 -25.5q6 0 6 -12.5t-6 -12.5q-30 0 -110.5 2t-133.5 2q-49 0 -130 -2t-112 -2q-6 0 -6 12.5t6 12.5q111 0 143.5 26 t32.5 115v948q0 88 -33 114.5t-143 26.5q-6 0 -6 12.5t6 12.5q31 0 112 -3t130 -3q53 0 135 3t109 3q6 0 6 -12.5t-6 -12.5q-109 0 -141.5 -28t-32.5 -117v-944z" />
<glyph unicode="&#xcf;" horiz-adv-x="679" d="M195 1466q-42 0 -66.5 22.5t-24.5 63.5q0 37 25 59.5t66 22.5q38 0 61 -22.5t23 -59.5q0 -41 -22.5 -63.5t-61.5 -22.5zM485 1466q-40 0 -63 22.5t-23 63.5q0 37 23.5 59.5t62.5 22.5t61.5 -22.5t22.5 -59.5q0 -41 -22 -63.5t-62 -22.5zM408 166q0 -90 31 -115.5 t143 -25.5q6 0 6 -12.5t-6 -12.5q-30 0 -110.5 2t-133.5 2q-49 0 -130 -2t-112 -2q-6 0 -6 12.5t6 12.5q111 0 143.5 26t32.5 115v948q0 88 -33 114.5t-143 26.5q-6 0 -6 12.5t6 12.5q31 0 112 -3t130 -3q53 0 135 3t109 3q6 0 6 -12.5t-6 -12.5q-109 0 -141.5 -28 t-32.5 -117v-944z" />
<glyph unicode="&#xd0;" horiz-adv-x="1415" d="M592 1284q214 0 379.5 -82t254.5 -223.5t89 -316.5q0 -150 -55.5 -277t-150 -212.5t-221 -133t-267.5 -47.5q-38 0 -148 6t-160 6q-48 0 -129 -2t-112 -2q-4 0 -4 12.5t4 12.5q113 0 145.5 26t32.5 115v450h-141q-9 0 -9 20.5t9 20.5h141v457q0 88 -32 114.5t-144 26.5 q-4 0 -4 12.5t4 12.5q31 0 111 -3t128 -3q46 0 145 5t134 5zM598 25q252 0 406.5 155t154.5 436q0 178 -66 322.5t-192 229.5t-291 85q-132 0 -180.5 -26.5t-48.5 -116.5v-453h278q9 0 9 -20.5t-9 -20.5h-278v-428q0 -90 44 -126.5t173 -36.5z" />
<glyph unicode="&#xd1;" horiz-adv-x="1488" d="M514 1427q-5 -3 -11.5 4t-2.5 11q93 127 174 127q30 0 116 -24.5t140 -24.5q35 0 56 13t44 40q3 3 7.5 1t6.5 -6.5t0 -8.5q-54 -74 -88.5 -100.5t-72.5 -26.5q-42 0 -129 25.5t-140 25.5q-16 0 -28 -2t-23.5 -10t-16 -11t-17.5 -17t-15 -16zM1442 1280q6 0 6 -12.5 t-6 -12.5q-86 0 -124 -46t-38 -152v-1082q0 -4 -11 -5.5t-14 1.5l-944 1141l-16 18v-907q0 -106 36.5 -152t121.5 -46q6 0 6 -12.5t-6 -12.5q-26 0 -85 2t-96 2q-34 0 -98 -2t-90 -2q-6 0 -6 12.5t6 12.5q87 0 124.5 46t37.5 152v959q-78 73 -162 73q-6 0 -6 12.5t6 12.5 q24 0 73 -2t70 -2q29 0 70 2t47 2q13 0 22.5 -6.5t16 -16.5t22.5 -34.5t35 -48.5l791 -967v850q0 106 -36 152t-120 46q-5 0 -5 12.5t5 12.5q26 0 84.5 -3t95.5 -3q36 0 98.5 3t88.5 3z" />
<glyph unicode="&#xd2;" horiz-adv-x="1568" d="M989 1389q-211 95 -454 159q-19 3 24 25q64 31 99 34q6 0 8 -1q18 -11 94.5 -58.5t129 -78t109.5 -58.5q6 -3 2.5 -14t-12.5 -8zM750 -25q-191 0 -341 91t-229.5 242t-79.5 331q0 129 43 239t115 187t165.5 131.5t195 80.5t202.5 26q146 0 270 -55t205.5 -146.5 t126.5 -208t45 -240.5q0 -140 -58 -266t-155 -216t-229 -143t-276 -53zM821 18q103 0 192.5 38.5t156.5 110t105 182.5t38 247q0 191 -70.5 340t-202.5 234t-305 85q-226 0 -352.5 -145.5t-126.5 -400.5q0 -192 70.5 -349t200.5 -249.5t294 -92.5z" />
<glyph unicode="&#xd3;" horiz-adv-x="1568" d="M590 1389q-6 -2 -10.5 3t-4 10.5t4.5 8.5q57 28 112.5 60.5t120.5 73.5t98 61q15 8 90 -25q52 -22 48 -31l-5 -2q-247 -64 -454 -159zM750 -25q-191 0 -341 91t-229.5 242t-79.5 331q0 129 43 239t115 187t165.5 131.5t195 80.5t202.5 26q146 0 270 -55t205.5 -146.5 t126.5 -208t45 -240.5q0 -140 -58 -266t-155 -216t-229 -143t-276 -53zM821 18q103 0 192.5 38.5t156.5 110t105 182.5t38 247q0 191 -70.5 340t-202.5 234t-305 85q-226 0 -352.5 -145.5t-126.5 -400.5q0 -192 70.5 -349t200.5 -249.5t294 -92.5z" />
<glyph unicode="&#xd4;" horiz-adv-x="1568" d="M555 1417l211 199q9 9 22.5 9t22.5 -9l211 -199q7 -4 -1 -11q-6 -5 -11 -3l-219 119l-224 -119q-2 -1 -6 2t-6 6.5t0 5.5zM750 -25q-191 0 -341 91t-229.5 242t-79.5 331q0 129 43 239t115 187t165.5 131.5t195 80.5t202.5 26q146 0 270 -55t205.5 -146.5t126.5 -208 t45 -240.5q0 -140 -58 -266t-155 -216t-229 -143t-276 -53zM821 18q103 0 192.5 38.5t156.5 110t105 182.5t38 247q0 191 -70.5 340t-202.5 234t-305 85q-226 0 -352.5 -145.5t-126.5 -400.5q0 -192 70.5 -349t200.5 -249.5t294 -92.5z" />
<glyph unicode="&#xd5;" horiz-adv-x="1568" d="M948 1520q24 0 43.5 8t30 17.5t27.5 27.5q2 2 6 0.5t7 -6t1 -8.5q-54 -74 -89 -100.5t-73 -26.5q-43 0 -129 25.5t-139 25.5q-13 0 -25 -3t-19 -4.5t-18 -10t-13 -10.5l-14.5 -14.5l-13.5 -13.5q-2 -2 -6 0.5t-7 7t-1 7.5q99 127 176 127q30 0 116 -24.5t140 -24.5z M750 -25q-191 0 -341 91t-229.5 242t-79.5 331q0 129 43 239t115 187t165.5 131.5t195 80.5t202.5 26q146 0 270 -55t205.5 -146.5t126.5 -208t45 -240.5q0 -140 -58 -266t-155 -216t-229 -143t-276 -53zM821 18q103 0 192.5 38.5t156.5 110t105 182.5t38 247 q0 191 -70.5 340t-202.5 234t-305 85q-226 0 -352.5 -145.5t-126.5 -400.5q0 -192 70.5 -349t200.5 -249.5t294 -92.5z" />
<glyph unicode="&#xd6;" horiz-adv-x="1568" d="M608 1466q-40 0 -63 22.5t-23 63.5q0 37 23.5 59.5t62.5 22.5q41 0 63.5 -22.5t22.5 -59.5q0 -41 -22.5 -63.5t-63.5 -22.5zM967 1466q-41 0 -63.5 22.5t-22.5 63.5q0 37 22.5 59.5t63.5 22.5q39 0 61.5 -22.5t22.5 -59.5q0 -41 -22 -63.5t-62 -22.5zM750 -25 q-191 0 -341 91t-229.5 242t-79.5 331q0 129 43 239t115 187t165.5 131.5t195 80.5t202.5 26q146 0 270 -55t205.5 -146.5t126.5 -208t45 -240.5q0 -140 -58 -266t-155 -216t-229 -143t-276 -53zM821 18q103 0 192.5 38.5t156.5 110t105 182.5t38 247q0 191 -70.5 340 t-202.5 234t-305 85q-226 0 -352.5 -145.5t-126.5 -400.5q0 -192 70.5 -349t200.5 -249.5t294 -92.5z" />
<glyph unicode="&#xd7;" horiz-adv-x="782" d="M451 457l208 -209q4 -5 -9 -21.5t-28.5 -29t-19.5 -7.5l-209 209l-211 -211q-5 -5 -21 8t-29 29t-9 19l213 213l-211 211q-5 4 7.5 20t28 29t19.5 10l213 -213l209 209q4 4 19.5 -9t28.5 -29t9 -21z" />
<glyph unicode="&#xd8;" horiz-adv-x="1579" d="M1280 1118q90 -90 139 -212.5t49 -252.5q0 -140 -58 -266t-155 -216t-229 -143t-276 -53q-257 0 -437 162l-149 -151q-4 -4 -13 1.5t-15 14.5t-1 14l148 150q-88 91 -135.5 214t-47.5 259q0 129 43 239t115 187t165.5 131.5t195 80.5t202.5 26q251 0 428 -156l142 143 q3 3 12.5 -1.5t16 -12t1.5 -12.5zM256 709q0 -254 123 -445l784 797q-76 93 -185.5 143.5t-242.5 50.5q-226 0 -352.5 -145.5t-126.5 -400.5zM821 18q103 0 192.5 38.5t156.5 110t105 182.5t38 247q0 252 -125 432l-785 -799q76 -100 183.5 -155.5t234.5 -55.5z" />
<glyph unicode="&#xd9;" horiz-adv-x="1429" d="M967 1389q-213 96 -455 159q-18 3 24 24q63 32 99 35l8 -1q29 -17 98 -60t124 -75t112 -60q4 -3 4.5 -8.5t-4 -10.5t-10.5 -3zM1171 1057q0 198 -178 198q-5 0 -5 12.5t5 12.5q28 0 95.5 -3t109.5 -3q32 0 96 3t90 3q6 0 6 -12.5t-6 -12.5q-163 0 -163 -198v-586 q0 -233 -131.5 -365.5t-352.5 -132.5q-227 0 -364 132t-137 352v657q0 88 -32.5 114.5t-144.5 26.5q-5 0 -5 12.5t5 12.5q30 0 111 -3t129 -3q51 0 132.5 3t109.5 3q6 0 6 -12.5t-6 -12.5q-110 0 -142 -27.5t-32 -117.5v-582q0 -239 109 -365t306 -126q184 0 286.5 114.5 t102.5 317.5v588z" />
<glyph unicode="&#xda;" horiz-adv-x="1429" d="M567 1389q-9 -3 -12.5 8t2.5 14q75 37 198 112t136 83t87 -24q54 -23 49 -32l-5 -2q-242 -63 -455 -159zM1171 1057q0 198 -178 198q-5 0 -5 12.5t5 12.5q28 0 95.5 -3t109.5 -3q32 0 96 3t90 3q6 0 6 -12.5t-6 -12.5q-163 0 -163 -198v-586q0 -233 -131.5 -365.5 t-352.5 -132.5q-227 0 -364 132t-137 352v657q0 88 -32.5 114.5t-144.5 26.5q-5 0 -5 12.5t5 12.5q30 0 111 -3t129 -3q51 0 132.5 3t109.5 3q6 0 6 -12.5t-6 -12.5q-110 0 -142 -27.5t-32 -117.5v-582q0 -239 109 -365t306 -126q184 0 286.5 114.5t102.5 317.5v588z" />
<glyph unicode="&#xdb;" horiz-adv-x="1429" d="M535 1417l210 199q7 9 22 9t24 -9l210 -199q2 -2 0.5 -6t-5.5 -7t-7 -1l-221 119l-223 -119q-5 -2 -11 6q-4 6 1 8zM1171 1057q0 198 -178 198q-5 0 -5 12.5t5 12.5q28 0 95.5 -3t109.5 -3q32 0 96 3t90 3q6 0 6 -12.5t-6 -12.5q-163 0 -163 -198v-586 q0 -233 -131.5 -365.5t-352.5 -132.5q-227 0 -364 132t-137 352v657q0 88 -32.5 114.5t-144.5 26.5q-5 0 -5 12.5t5 12.5q30 0 111 -3t129 -3q51 0 132.5 3t109.5 3q6 0 6 -12.5t-6 -12.5q-110 0 -142 -27.5t-32 -117.5v-582q0 -239 109 -365t306 -126q184 0 286.5 114.5 t102.5 317.5v588z" />
<glyph unicode="&#xdc;" horiz-adv-x="1429" d="M586 1466q-39 0 -62.5 22.5t-23.5 63.5q0 37 24 59.5t62 22.5q41 0 63.5 -22.5t22.5 -59.5q0 -41 -22.5 -63.5t-63.5 -22.5zM946 1466q-41 0 -63.5 22.5t-22.5 63.5q0 37 22.5 59.5t63.5 22.5q38 0 61 -22.5t23 -59.5q0 -41 -22.5 -63.5t-61.5 -22.5zM1171 1057 q0 198 -178 198q-5 0 -5 12.5t5 12.5q28 0 95.5 -3t109.5 -3q32 0 96 3t90 3q6 0 6 -12.5t-6 -12.5q-163 0 -163 -198v-586q0 -233 -131.5 -365.5t-352.5 -132.5q-227 0 -364 132t-137 352v657q0 88 -32.5 114.5t-144.5 26.5q-5 0 -5 12.5t5 12.5q30 0 111 -3t129 -3 q51 0 132.5 3t109.5 3q6 0 6 -12.5t-6 -12.5q-110 0 -142 -27.5t-32 -117.5v-582q0 -239 109 -365t306 -126q184 0 286.5 114.5t102.5 317.5v588z" />
<glyph unicode="&#xdd;" horiz-adv-x="1247" d="M451 1389q-5 -2 -9 3t-4 10.5t4 8.5q57 28 112.5 60.5t121.5 74t98 60.5q13 8 89 -25q53 -23 48 -31q0 -1 -4 -2q-244 -63 -456 -159zM1255 1280q5 0 5 -12.5t-5 -12.5q-72 0 -148 -54.5t-134 -149.5l-277 -422v-463q0 -90 31.5 -115.5t144.5 -25.5q4 0 4 -12.5t-4 -12.5 q-30 0 -110 2t-131 2q-49 0 -131 -2t-113 -2q-5 0 -5 12.5t5 12.5q114 0 146 25.5t32 115.5v432l-340 498q-59 90 -109.5 124.5t-117.5 34.5q-6 0 -6 12.5t6 12.5q24 0 73.5 -3t71.5 -3q61 0 158 3t127 3q6 0 6 -12.5t-6 -12.5q-78 0 -98 -22.5t14 -71.5l332 -483l246 383 q60 94 43.5 144t-107.5 50q-6 0 -6 12.5t6 12.5q34 0 107 -3t133 -3q34 0 81 3t76 3z" />
<glyph unicode="&#xde;" horiz-adv-x="1099" d="M557 301q63 0 119 21t101 62t71 109t26 154q0 164 -93.5 255t-248.5 91q-69 0 -141 -16v-803q0 -33 3 -54t13.5 -39t26.5 -28t44.5 -16.5t65 -9t91.5 -2.5q6 0 6 -12.5t-6 -12.5q-40 0 -142 2t-165 2q-48 0 -129 -2t-109 -2q-6 0 -6 12.5t6 12.5q108 0 139 25.5t31 115.5 v948q0 88 -31 114.5t-139 26.5q-6 0 -6 12.5t6 12.5q28 0 109 -3t129 -3q63 0 165 3t142 3q6 0 6 -12.5t-6 -12.5q-82 0 -127.5 -5.5t-73 -23.5t-35.5 -45t-8 -77v-96q92 14 193 14q94 0 170.5 -18t138 -56t96.5 -104t37 -156q2 -84 -24 -154.5t-71 -118t-104.5 -80.5 t-122.5 -48t-126 -15q-40 0 -101 11q-4 1 -4.5 8t2.5 13t8 5q46 -8 74 -8z" />
<glyph unicode="&#xdf;" horiz-adv-x="1093" d="M791 20q59 0 98 40.5t39 111.5q0 80 -53.5 157t-178.5 173q-18 13 -8 33l162 243q-200 142 -361 142q-99 0 -146.5 -66t-47.5 -229v-459q0 -90 19 -115.5t89 -25.5q5 0 5 -12.5t-5 -12.5q-25 0 -87 1t-89 1q-41 0 -110 -1t-97 -1q-6 0 -6 12.5t6 12.5q94 0 123 26t29 115 v416q0 73 26.5 143t75.5 128.5t127.5 94t173.5 35.5q143 0 269 -61q37 -16 56 -17.5t35 11t42 49.5q6 9 15.5 2t6.5 -15l-229 -352q142 -100 202 -179.5t60 -164.5q0 -108 -85.5 -193.5t-227.5 -85.5q-93 0 -182 60q-16 7 -19 39l-18 166q-1 9 10 10.5t14 -6.5 q25 -86 106 -156t161 -70z" />
<glyph unicode="&#xe0;" horiz-adv-x="978" d="M264 1227q-18 3 24 24q63 33 98 34q7 1 9 -1q19 -12 95.5 -58t129 -76t109.5 -60q3 -3 3.5 -8.5t-3.5 -10.5t-10 -2q-237 104 -455 158zM944 113q6 3 10 -1.5t4 -11.5t-6 -10l-215 -102q-8 -4 -14 -4q-29 0 -52.5 39.5t-27.5 103.5l-149 -76q-127 -65 -197 -65 q-63 0 -103 33t-40 96q0 60 41.5 95.5t146.5 76.5l299 114v289q0 125 -35.5 182.5t-111.5 57.5q-84 0 -134.5 -63.5t-62.5 -147.5q-6 -30 -26 -54t-56 -24q-32 0 -53 20.5t-19 45.5q0 53 70.5 117t173 108.5t186.5 44.5q89 0 141 -56t52 -169v-523q0 -74 18.5 -109.5 t59.5 -35.5q22 0 100 29zM485 82l156 74v4v211l-254 -101q-43 -16 -64.5 -40.5t-21.5 -69.5q0 -50 24 -76.5t68 -26.5q37 0 92 25z" />
<glyph unicode="&#xe1;" horiz-adv-x="978" d="M322 1069q-6 -3 -10 2t-4 10.5t3 8.5q56 29 113 62t120.5 71.5t100.5 60.5q13 9 87 -23q52 -22 49 -31l-5 -3q-215 -53 -454 -158zM944 113q6 3 10 -1.5t4 -11.5t-6 -10l-215 -102q-8 -4 -14 -4q-29 0 -52.5 39.5t-27.5 103.5l-149 -76q-127 -65 -197 -65q-63 0 -103 33 t-40 96q0 60 41.5 95.5t146.5 76.5l299 114v289q0 125 -35.5 182.5t-111.5 57.5q-84 0 -134.5 -63.5t-62.5 -147.5q-6 -30 -26 -54t-56 -24q-32 0 -53 20.5t-19 45.5q0 53 70.5 117t173 108.5t186.5 44.5q89 0 141 -56t52 -169v-523q0 -74 18.5 -109.5t59.5 -35.5 q22 0 100 29zM485 82l156 74v4v211l-254 -101q-43 -16 -64.5 -40.5t-21.5 -69.5q0 -50 24 -76.5t68 -26.5q37 0 92 25z" />
<glyph unicode="&#xe2;" horiz-adv-x="978" d="M297 1077q-2 -1 -6 2t-6 7t0 6l211 198q9 9 23.5 9t23.5 -9l209 -198q3 -2 2 -6.5t-5.5 -7.5t-7.5 -1l-221 119zM944 113q6 3 10 -1.5t4 -11.5t-6 -10l-215 -102q-8 -4 -14 -4q-29 0 -52.5 39.5t-27.5 103.5l-149 -76q-127 -65 -197 -65q-63 0 -103 33t-40 96 q0 60 41.5 95.5t146.5 76.5l299 114v289q0 125 -35.5 182.5t-111.5 57.5q-84 0 -134.5 -63.5t-62.5 -147.5q-6 -30 -26 -54t-56 -24q-32 0 -53 20.5t-19 45.5q0 53 70.5 117t173 108.5t186.5 44.5q89 0 141 -56t52 -169v-523q0 -74 18.5 -109.5t59.5 -35.5q22 0 100 29z M485 82l156 74v4v211l-254 -101q-43 -16 -64.5 -40.5t-21.5 -69.5q0 -50 24 -76.5t68 -26.5q37 0 92 25z" />
<glyph unicode="&#xe3;" horiz-adv-x="978" d="M260 1106q-5 -3 -11.5 3.5t-2.5 10.5q34 48 81.5 87.5t96.5 39.5q31 0 116.5 -24.5t139.5 -24.5q24 0 44 9t30 18t28 28q3 3 10.5 -3.5t4.5 -10.5q-56 -75 -92 -101t-76 -26q-43 0 -129.5 24.5t-139.5 24.5q-13 0 -24.5 -2.5t-19 -5t-16.5 -9.5t-13 -10.5t-13.5 -13.5 t-13.5 -14zM944 113q6 3 10 -1.5t4 -11.5t-6 -10l-215 -102q-8 -4 -14 -4q-29 0 -52.5 39.5t-27.5 103.5l-149 -76q-127 -65 -197 -65q-63 0 -103 33t-40 96q0 60 41.5 95.5t146.5 76.5l299 114v289q0 125 -35.5 182.5t-111.5 57.5q-84 0 -134.5 -63.5t-62.5 -147.5 q-6 -30 -26 -54t-56 -24q-32 0 -53 20.5t-19 45.5q0 53 70.5 117t173 108.5t186.5 44.5q89 0 141 -56t52 -169v-523q0 -74 18.5 -109.5t59.5 -35.5q22 0 100 29zM485 82l156 74v4v211l-254 -101q-43 -16 -64.5 -40.5t-21.5 -69.5q0 -50 24 -76.5t68 -26.5q37 0 92 25z" />
<glyph unicode="&#xe4;" horiz-adv-x="978" d="M338 1145q-40 0 -63 22.5t-23 63.5q0 38 23 60t63 22q41 0 63.5 -21.5t22.5 -60.5q0 -41 -22.5 -63.5t-63.5 -22.5zM698 1145q-41 0 -64.5 22.5t-23.5 63.5q0 38 23.5 60t64.5 22q38 0 61 -22t23 -60q0 -41 -22.5 -63.5t-61.5 -22.5zM944 113q6 3 10 -1.5t4 -11.5t-6 -10 l-215 -102q-8 -4 -14 -4q-29 0 -52.5 39.5t-27.5 103.5l-149 -76q-127 -65 -197 -65q-63 0 -103 33t-40 96q0 60 41.5 95.5t146.5 76.5l299 114v289q0 125 -35.5 182.5t-111.5 57.5q-84 0 -134.5 -63.5t-62.5 -147.5q-6 -30 -26 -54t-56 -24q-32 0 -53 20.5t-19 45.5 q0 53 70.5 117t173 108.5t186.5 44.5q89 0 141 -56t52 -169v-523q0 -74 18.5 -109.5t59.5 -35.5q22 0 100 29zM485 82l156 74v4v211l-254 -101q-43 -16 -64.5 -40.5t-21.5 -69.5q0 -50 24 -76.5t68 -26.5q37 0 92 25z" />
<glyph unicode="&#xe5;" horiz-adv-x="933" d="M449 1126q-83 0 -132 48t-49 114q0 74 61.5 116t137.5 42q74 0 127 -47.5t53 -114.5q0 -71 -61 -114.5t-137 -43.5zM426 1425q-68 0 -68 -96q0 -70 33 -126t88 -56q40 0 57 23.5t17 76.5q0 73 -37 125.5t-90 52.5zM944 113q6 3 10 -1.5t4 -11.5t-6 -10l-215 -102 q-8 -4 -14 -4q-29 0 -52.5 39.5t-27.5 103.5l-149 -76q-127 -65 -197 -65q-63 0 -103 33t-40 96q0 60 41.5 95.5t146.5 76.5l299 114v289q0 125 -35.5 182.5t-111.5 57.5q-84 0 -134.5 -63.5t-62.5 -147.5q-6 -30 -26 -54t-56 -24q-32 0 -53 20.5t-19 45.5q0 53 70.5 117 t173 108.5t186.5 44.5q89 0 141 -56t52 -169v-523q0 -74 18.5 -109.5t59.5 -35.5q22 0 100 29zM485 82l156 74v4v211l-254 -101q-43 -16 -64.5 -40.5t-21.5 -69.5q0 -50 24 -76.5t68 -26.5q37 0 92 25z" />
<glyph unicode="&#xe6;" horiz-adv-x="1312" d="M1286 111q6 3 13 -6t1 -15q-143 -115 -309 -115q-229 0 -317 175l-209 -107q-62 -32 -101.5 -44.5t-82.5 -12.5q-84 0 -128 35t-44 96q0 59 42 100t138 76l327 119q-2 18 -2 55q0 101 -1.5 164.5t-7.5 121t-16 88t-27.5 54t-41.5 31.5t-59 8q-52 0 -91.5 -18t-61 -48 t-32.5 -60.5t-14 -64.5q-3 -28 -8 -46.5t-23 -35t-49 -16.5q-35 0 -52 18t-17 46q0 58 62 121t158.5 105t188.5 42q91 0 137 -47t58 -146q94 193 319 193q112 0 174 -62t62 -167q0 -26 -5.5 -37t-19.5 -11l-487 -2q-19 -84 -19 -184q0 -234 77.5 -353.5t252.5 -119.5 q121 0 215 70zM987 936q-80 0 -136.5 -54t-84.5 -157l362 10q1 96 -37 148.5t-104 52.5zM457 74l207 98q-37 84 -46 213l-280 -109q-86 -34 -86 -112q0 -53 34 -81t83 -28q42 0 88 19z" />
<glyph unicode="&#xe7;" horiz-adv-x="1101" d="M987 287q1 7 13 5.5t12 -7.5l-27 -217q-1 -17 -6 -23t-23 -14q-163 -56 -329 -56q-20 -64 -20 -92t14.5 -43.5t61.5 -43.5q6 -3 9 -5q53 -30 83 -66t30 -92q0 -76 -53 -136t-156 -60q-60 0 -97.5 21t-37.5 59q0 25 18 42t43 17t40.5 -15.5t22 -33.5t25 -33.5t47.5 -15.5 q70 0 70 76q0 55 -38 96.5t-138 95.5q-25 13 -27.5 22.5t8.5 38.5q26 64 64 168q-111 4 -202 38.5t-149.5 86t-98 118.5t-56 133t-16.5 132q0 214 161 357t402 143q78 0 167 -15.5t144 -43.5q14 -6 18.5 -12.5t6.5 -22.5l18 -211q0 -6 -10.5 -7.5t-11.5 5.5 q-37 139 -134 207.5t-241 68.5q-162 0 -267.5 -124.5t-105.5 -313.5q0 -94 26.5 -183t77.5 -163t135 -119t189 -45q260 0 338 283z" />
<glyph unicode="&#xe8;" horiz-adv-x="901" d="M266 1227q-20 3 26 26q65 32 97 33l8 -2q19 -12 95.5 -58t129 -76t109.5 -60q3 -3 3.5 -8.5t-3.5 -10.5t-10 -2q-237 104 -455 158zM834 111q6 3 13 -6t1 -15q-143 -115 -316 -115q-111 0 -200.5 41.5t-144.5 110.5t-84 155t-29 179q0 143 66 262.5t183.5 189.5t260.5 70 q121 0 190.5 -64.5t69.5 -170.5q0 -46 -25 -46l-590 -2q-20 -82 -20 -165q0 -215 106 -353.5t289 -138.5q136 0 230 68zM514 938q-98 0 -169.5 -54.5t-106.5 -156.5l464 8q0 97 -51 150t-137 53z" />
<glyph unicode="&#xe9;" horiz-adv-x="901" d="M324 1069q-6 -3 -10 2t-4 10.5t3 8.5q56 29 113 62t120.5 71.5t100.5 60.5q13 9 87 -23q52 -22 49 -31l-5 -3q-215 -53 -454 -158zM834 111q6 3 13 -6t1 -15q-143 -115 -316 -115q-111 0 -200.5 41.5t-144.5 110.5t-84 155t-29 179q0 143 66 262.5t183.5 189.5t260.5 70 q121 0 190.5 -64.5t69.5 -170.5q0 -46 -25 -46l-590 -2q-20 -82 -20 -165q0 -215 106 -353.5t289 -138.5q136 0 230 68zM514 938q-98 0 -169.5 -54.5t-106.5 -156.5l464 8q0 97 -51 150t-137 53z" />
<glyph unicode="&#xea;" horiz-adv-x="901" d="M299 1077q-2 -1 -6 2t-6 7t0 6l211 198q9 9 23.5 9t21.5 -9l211 -198q3 -2 2 -6.5t-5.5 -7.5t-7.5 -1l-221 119zM834 111q6 3 13 -6t1 -15q-143 -115 -316 -115q-111 0 -200.5 41.5t-144.5 110.5t-84 155t-29 179q0 143 66 262.5t183.5 189.5t260.5 70q121 0 190.5 -64.5 t69.5 -170.5q0 -46 -25 -46l-590 -2q-20 -82 -20 -165q0 -215 106 -353.5t289 -138.5q136 0 230 68zM514 938q-98 0 -169.5 -54.5t-106.5 -156.5l464 8q0 97 -51 150t-137 53z" />
<glyph unicode="&#xeb;" horiz-adv-x="901" d="M340 1145q-40 0 -63 22.5t-23 63.5q0 38 23 60t63 22q41 0 63.5 -21.5t22.5 -60.5q0 -41 -22.5 -63.5t-63.5 -22.5zM700 1145q-41 0 -64.5 22.5t-23.5 63.5q0 38 23.5 60t64.5 22q38 0 60 -22t22 -60q0 -41 -21.5 -63.5t-60.5 -22.5zM834 111q6 3 13 -6t1 -15 q-143 -115 -316 -115q-111 0 -200.5 41.5t-144.5 110.5t-84 155t-29 179q0 143 66 262.5t183.5 189.5t260.5 70q121 0 190.5 -64.5t69.5 -170.5q0 -46 -25 -46l-590 -2q-20 -82 -20 -165q0 -215 106 -353.5t289 -138.5q136 0 230 68zM514 938q-98 0 -169.5 -54.5 t-106.5 -156.5l464 8q0 97 -51 150t-137 53z" />
<glyph unicode="&#xec;" horiz-adv-x="602" d="M508 1069q-237 104 -455 158q-20 3 26 26q65 32 97 33q6 0 8 -2q19 -12 95.5 -58t129 -76t109.5 -60q3 -3 3.5 -8.5t-3.5 -10.5t-10 -2zM365 166q0 -90 27 -115.5t126 -25.5q4 0 4 -12.5t-4 -12.5q-27 0 -100 2t-119 2q-41 0 -114.5 -2t-100.5 -2q-6 0 -6 12.5t6 12.5 q98 0 127 26t29 115v627q0 88 -29 114.5t-127 26.5q-6 0 -6 12t6 12q27 0 100.5 -3t114.5 -3q47 0 120.5 3t98.5 3q4 0 4 -12t-4 -12q-96 0 -124.5 -28t-28.5 -118v-622z" />
<glyph unicode="&#xed;" horiz-adv-x="602" d="M111 1069q-6 -3 -10.5 2t-4.5 10.5t4 8.5q56 29 113 62t120.5 71.5t100.5 60.5q13 9 86 -23q54 -23 50 -32l-5 -2q-215 -53 -454 -158zM365 166q0 -90 27 -115.5t126 -25.5q4 0 4 -12.5t-4 -12.5q-27 0 -100 2t-119 2q-41 0 -114.5 -2t-100.5 -2q-6 0 -6 12.5t6 12.5 q98 0 127 26t29 115v627q0 88 -29 114.5t-127 26.5q-6 0 -6 12t6 12q27 0 100.5 -3t114.5 -3q47 0 120.5 3t98.5 3q4 0 4 -12t-4 -12q-96 0 -124.5 -28t-28.5 -118v-622z" />
<glyph unicode="&#xee;" horiz-adv-x="602" d="M74 1092l211 198q9 9 23 9t22 -9l211 -198q3 -2 2 -6.5t-5.5 -7.5t-7.5 -1l-221 119l-223 -119q-2 -1 -6 2t-6 7t0 6zM365 166q0 -90 27 -115.5t126 -25.5q4 0 4 -12.5t-4 -12.5q-27 0 -100 2t-119 2q-41 0 -114.5 -2t-100.5 -2q-6 0 -6 12.5t6 12.5q98 0 127 26t29 115 v627q0 88 -29 114.5t-127 26.5q-6 0 -6 12t6 12q27 0 100.5 -3t114.5 -3q47 0 120.5 3t98.5 3q4 0 4 -12t-4 -12q-96 0 -124.5 -28t-28.5 -118v-622z" />
<glyph unicode="&#xef;" horiz-adv-x="602" d="M160 1145q-41 0 -64.5 22.5t-23.5 63.5q0 38 23.5 60t64.5 22q40 0 62 -22t22 -60q0 -41 -22 -63.5t-62 -22.5zM453 1145q-41 0 -63.5 22.5t-22.5 63.5q0 39 22.5 60.5t63.5 21.5q40 0 62 -22t22 -60q0 -41 -22 -63.5t-62 -22.5zM365 166q0 -90 27 -115.5t126 -25.5 q4 0 4 -12.5t-4 -12.5q-27 0 -100 2t-119 2q-41 0 -114.5 -2t-100.5 -2q-6 0 -6 12.5t6 12.5q98 0 127 26t29 115v627q0 88 -29 114.5t-127 26.5q-6 0 -6 12t6 12q27 0 100.5 -3t114.5 -3q47 0 120.5 3t98.5 3q4 0 4 -12t-4 -12q-96 0 -124.5 -28t-28.5 -118v-622z" />
<glyph unicode="&#xf0;" horiz-adv-x="1163" d="M537 963q259 0 406 -134t147 -344q0 -215 -148.5 -354t-380.5 -139q-37 0 -132 6t-142 6q-41 0 -114.5 -2t-100.5 -2q-4 0 -4 12.5t4 12.5q98 0 126.5 26t28.5 115v299h-110q-9 0 -9 19.5t9 19.5h110v289q0 88 -28.5 114.5t-124.5 26.5q-4 0 -4 12t4 12q27 0 99.5 -3 t113.5 -3t125.5 5.5t124.5 5.5zM537 23q191 0 299 114.5t108 325.5q0 97 -25 180.5t-74.5 150t-132.5 104.5t-192 38q-94 0 -132 -32t-38 -116v-284h258q9 0 9 -19.5t-9 -19.5h-258v-277q0 -91 37.5 -128t149.5 -37z" />
<glyph unicode="&#xf1;" horiz-adv-x="1222" d="M395 1106q-2 -2 -6 0.5t-7 6.5t-1 7q95 127 180 127q31 0 116.5 -24.5t139.5 -24.5q24 0 44 9t29.5 17.5t27.5 28.5q5 5 13 -6q2 -5 1 -8q-55 -75 -90.5 -101t-77.5 -26t-128 24.5t-140 24.5q-13 0 -25 -2.5t-19 -5t-16.5 -10t-13 -10t-14 -13.5t-13.5 -14zM1198 25 q4 0 4 -12.5t-4 -12.5q-23 0 -86.5 2t-99.5 2q-44 0 -115.5 -2t-95.5 -2q-6 0 -6 12.5t6 12.5q94 0 121.5 28t27.5 117v408q0 103 -18.5 173.5t-55.5 108.5t-82.5 54t-107.5 16q-91 0 -170 -38.5t-166 -129.5v-592q0 -90 26.5 -117.5t119.5 -27.5q6 0 6 -12.5t-6 -12.5 q-25 0 -97 2t-116 2q-40 0 -112.5 -2t-98.5 -2q-4 0 -4 12.5t4 12.5q96 0 124.5 26t28.5 115v627q0 88 -27 114.5t-122 26.5q-4 0 -4 12t4 12q23 0 67.5 -1t67.5 -1t54.5 1t45.5 1q25 0 32 -6.5t7 -31.5v-119q182 182 389 182q151 0 243.5 -83t92.5 -255v-479 q0 -90 22 -115.5t101 -25.5z" />
<glyph unicode="&#xf2;" d="M788 1067q-222 101 -454 158q-18 4 27 27q64 31 96 32l8 -2q34 -20 99 -59.5t122 -72t113 -60.5q8 -5 3 -15.5t-14 -7.5zM563 -25q-144 0 -257 69.5t-172.5 182.5t-59.5 248q0 120 51 219.5t132.5 160.5t177.5 94.5t192 33.5q109 0 201 -42t152 -111.5t93 -156.5t33 -179 q0 -104 -43 -199.5t-116 -165.5t-173.5 -112t-210.5 -42zM616 16q158 0 253.5 113.5t95.5 312.5q0 137 -45.5 247.5t-138.5 179.5t-220 69q-165 0 -255.5 -108.5t-90.5 -305.5q0 -141 47 -255.5t139.5 -183.5t214.5 -69z" />
<glyph unicode="&#xf3;" d="M391 1067q-9 -3 -12.5 7.5t2.5 15.5q74 37 190 106.5t144 85.5q13 9 85 -21q54 -23 51 -33q-1 -2 -5 -3q-234 -58 -455 -158zM563 -25q-144 0 -257 69.5t-172.5 182.5t-59.5 248q0 120 51 219.5t132.5 160.5t177.5 94.5t192 33.5q109 0 201 -42t152 -111.5t93 -156.5 t33 -179q0 -104 -43 -199.5t-116 -165.5t-173.5 -112t-210.5 -42zM616 16q158 0 253.5 113.5t95.5 312.5q0 137 -45.5 247.5t-138.5 179.5t-220 69q-165 0 -255.5 -108.5t-90.5 -305.5q0 -141 47 -255.5t139.5 -183.5t214.5 -69z" />
<glyph unicode="&#xf4;" d="M356 1092l209 198q9 9 23.5 9t23.5 -9l211 -198q2 -2 0.5 -7t-5.5 -8t-7 0l-221 117l-223 -117q-5 -3 -12 7q-2 6 1 8zM563 -25q-144 0 -257 69.5t-172.5 182.5t-59.5 248q0 120 51 219.5t132.5 160.5t177.5 94.5t192 33.5q109 0 201 -42t152 -111.5t93 -156.5t33 -179 q0 -104 -43 -199.5t-116 -165.5t-173.5 -112t-210.5 -42zM616 16q158 0 253.5 113.5t95.5 312.5q0 137 -45.5 247.5t-138.5 179.5t-220 69q-165 0 -255.5 -108.5t-90.5 -305.5q0 -141 47 -255.5t139.5 -183.5t214.5 -69z" />
<glyph unicode="&#xf5;" d="M752 1196q23 0 42.5 9t29.5 18t28 28q2 2 6 0.5t7 -6t1 -8.5q-57 -75 -92 -101t-76 -26q-42 0 -128.5 25.5t-139.5 25.5q-13 0 -24.5 -2.5t-19 -5t-16.5 -9.5t-13 -10.5t-13.5 -13.5t-13.5 -14q-5 -3 -12 2.5t-3 11.5q35 48 82.5 87.5t96.5 39.5q31 0 117 -25.5 t141 -25.5zM563 -25q-144 0 -257 69.5t-172.5 182.5t-59.5 248q0 120 51 219.5t132.5 160.5t177.5 94.5t192 33.5q109 0 201 -42t152 -111.5t93 -156.5t33 -179q0 -104 -43 -199.5t-116 -165.5t-173.5 -112t-210.5 -42zM616 16q158 0 253.5 113.5t95.5 312.5 q0 137 -45.5 247.5t-138.5 179.5t-220 69q-165 0 -255.5 -108.5t-90.5 -305.5q0 -141 47 -255.5t139.5 -183.5t214.5 -69z" />
<glyph unicode="&#xf6;" d="M408 1145q-39 0 -62.5 22.5t-23.5 63.5q0 36 23.5 58t62.5 22q41 0 63.5 -21.5t22.5 -58.5q0 -41 -22.5 -63.5t-63.5 -22.5zM768 1145q-41 0 -63.5 22.5t-22.5 63.5q0 37 22.5 58.5t63.5 21.5q38 0 61 -21.5t23 -58.5q0 -41 -22.5 -63.5t-61.5 -22.5zM563 -25 q-144 0 -257 69.5t-172.5 182.5t-59.5 248q0 120 51 219.5t132.5 160.5t177.5 94.5t192 33.5q109 0 201 -42t152 -111.5t93 -156.5t33 -179q0 -104 -43 -199.5t-116 -165.5t-173.5 -112t-210.5 -42zM616 16q158 0 253.5 113.5t95.5 312.5q0 137 -45.5 247.5t-138.5 179.5 t-220 69q-165 0 -255.5 -108.5t-90.5 -305.5q0 -141 47 -255.5t139.5 -183.5t214.5 -69z" />
<glyph unicode="&#xf7;" horiz-adv-x="815" d="M406 721q-42 0 -66.5 23t-24.5 65q0 39 24.5 61.5t66.5 22.5q41 0 64.5 -22t23.5 -62q0 -42 -23 -65t-65 -23zM70 432q-6 0 -8 20t-0.5 40t6.5 20h677q9 0 9 -40t-9 -40h-675zM406 61q-42 0 -66.5 24.5t-24.5 66.5q0 38 25 61t66 23t64.5 -22.5t23.5 -61.5 q0 -43 -23.5 -67t-64.5 -24z" />
<glyph unicode="&#xf8;" d="M967 844q67 -70 103 -162t36 -188q0 -104 -43 -199.5t-116 -165.5t-173.5 -112t-210.5 -42q-185 0 -317 113l-99 -102q-6 -5 -19.5 9t-6.5 21l94 99q-68 69 -104.5 162.5t-36.5 197.5q0 120 51 219.5t132.5 160.5t177.5 94.5t192 33.5q183 0 311 -115l94 99q6 6 20.5 -6 t8.5 -19zM215 524q0 -187 82 -323l565 587q-111 150 -301 150q-165 0 -255.5 -108.5t-90.5 -305.5zM616 16q158 0 253.5 113.5t95.5 312.5q0 183 -80 316l-563 -592q111 -150 294 -150z" />
<glyph unicode="&#xf9;" horiz-adv-x="1261" d="M377 1227q-20 3 26 26q65 32 97 33l8 -2q19 -12 95.5 -58t129 -76t109.5 -60q3 -3 3 -8.5t-4 -10.5t-10 -2q-239 105 -454 158zM1188 934q-95 0 -124.5 -26.5t-29.5 -114.5v-627q0 -89 27.5 -115t122.5 -26q4 0 4 -12.5t-4 -12.5q-22 0 -66 1t-69 1q-21 0 -52.5 -1 t-48.5 -1q-25 0 -32 6.5t-7 32.5v117q-184 -181 -387 -181q-146 0 -242 78t-96 213v527q0 89 -22 115t-101 26q-5 0 -5 12t5 12q23 0 87.5 -3t101.5 -3q46 0 116.5 3t94.5 3q5 0 5 -12t-5 -12q-94 0 -123 -28.5t-29 -117.5v-454q0 -305 269 -305q89 0 167.5 38t163.5 128 v593q0 90 -26 118t-119 28q-4 0 -4 12t4 12q25 0 97 -3t116 -3q42 0 113.5 3t97.5 3q6 0 6 -12t-6 -12z" />
<glyph unicode="&#xfa;" horiz-adv-x="1261" d="M434 1069q-6 -3 -10 2t-3.5 10.5t3.5 8.5q56 29 113 62t120.5 71.5t100.5 60.5q13 9 87 -23q52 -22 49 -31l-5 -3q-218 -54 -455 -158zM1188 934q-95 0 -124.5 -26.5t-29.5 -114.5v-627q0 -89 27.5 -115t122.5 -26q4 0 4 -12.5t-4 -12.5q-22 0 -66 1t-69 1 q-21 0 -52.5 -1t-48.5 -1q-25 0 -32 6.5t-7 32.5v117q-184 -181 -387 -181q-146 0 -242 78t-96 213v527q0 89 -22 115t-101 26q-5 0 -5 12t5 12q23 0 87.5 -3t101.5 -3q46 0 116.5 3t94.5 3q5 0 5 -12t-5 -12q-94 0 -123 -28.5t-29 -117.5v-454q0 -305 269 -305 q89 0 167.5 38t163.5 128v593q0 90 -26 118t-119 28q-4 0 -4 12t4 12q25 0 97 -3t116 -3q42 0 113.5 3t97.5 3q6 0 6 -12t-6 -12z" />
<glyph unicode="&#xfb;" horiz-adv-x="1261" d="M410 1077q-2 -1 -6.5 2t-6.5 7t0 6l211 198q9 9 23.5 9t21.5 -9l211 -198q3 -2 2 -6.5t-5 -7.5t-7 -1l-221 119zM1188 934q-95 0 -124.5 -26.5t-29.5 -114.5v-627q0 -89 27.5 -115t122.5 -26q4 0 4 -12.5t-4 -12.5q-22 0 -66 1t-69 1q-21 0 -52.5 -1t-48.5 -1 q-25 0 -32 6.5t-7 32.5v117q-184 -181 -387 -181q-146 0 -242 78t-96 213v527q0 89 -22 115t-101 26q-5 0 -5 12t5 12q23 0 87.5 -3t101.5 -3q46 0 116.5 3t94.5 3q5 0 5 -12t-5 -12q-94 0 -123 -28.5t-29 -117.5v-454q0 -305 269 -305q89 0 167.5 38t163.5 128v593 q0 90 -26 118t-119 28q-4 0 -4 12t4 12q25 0 97 -3t116 -3q42 0 113.5 3t97.5 3q6 0 6 -12t-6 -12z" />
<glyph unicode="&#xfc;" horiz-adv-x="1261" d="M451 1145q-40 0 -63 22.5t-23 63.5q0 38 23 60t63 22q41 0 63.5 -21.5t22.5 -60.5q0 -41 -22.5 -63.5t-63.5 -22.5zM811 1145q-41 0 -64.5 22.5t-23.5 63.5q0 38 23.5 60t64.5 22q38 0 60 -22t22 -60q0 -41 -21.5 -63.5t-60.5 -22.5zM1188 934q-95 0 -124.5 -26.5 t-29.5 -114.5v-627q0 -89 27.5 -115t122.5 -26q4 0 4 -12.5t-4 -12.5q-22 0 -66 1t-69 1q-21 0 -52.5 -1t-48.5 -1q-25 0 -32 6.5t-7 32.5v117q-184 -181 -387 -181q-146 0 -242 78t-96 213v527q0 89 -22 115t-101 26q-5 0 -5 12t5 12q23 0 87.5 -3t101.5 -3q46 0 116.5 3 t94.5 3q5 0 5 -12t-5 -12q-94 0 -123 -28.5t-29 -117.5v-454q0 -305 269 -305q89 0 167.5 38t163.5 128v593q0 90 -26 118t-119 28q-4 0 -4 12t4 12q25 0 97 -3t116 -3q42 0 113.5 3t97.5 3q6 0 6 -12t-6 -12z" />
<glyph unicode="&#xfd;" horiz-adv-x="1046" d="M348 1069q-6 -3 -10.5 2t-4 10.5t4.5 8.5q56 29 113 62t120.5 71.5t100.5 60.5q13 9 86 -23q54 -23 50 -32l-5 -2q-225 -56 -455 -158zM1055 958q5 0 5 -12t-5 -12q-61 0 -103 -33.5t-73 -118.5l-310 -780q-45 -120 -117 -214t-151 -132q-7 -5 -26.5 9t-30.5 34 q-12 24 -13.5 51.5t7.5 28.5q103 20 174.5 66t117.5 145l-378 798q-41 86 -71.5 116t-84.5 30q-6 0 -6 12t6 12q27 0 82.5 -3t87.5 -3q46 0 112.5 3t90.5 3q6 0 6 -12t-6 -12q-145 0 -88 -125l315 -647l240 633q29 72 0.5 105.5t-125.5 33.5q-5 0 -5 12t5 12q25 0 82 -3 t102 -3q35 0 82.5 3t77.5 3z" />
<glyph unicode="&#xfe;" horiz-adv-x="935" d="M522 774q340 0 340 -254q0 -80 -31.5 -143.5t-82 -100.5t-108.5 -56t-118 -19q-57 0 -96 10q-4 1 -4.5 8t2.5 13.5t8 5.5q35 -9 68 -9q92 0 156.5 65t64.5 185q0 128 -67.5 196t-178.5 68q-69 0 -127 -14v-555q0 -93 28.5 -121t127.5 -28q4 0 4 -12.5t-4 -12.5 q-28 0 -100.5 2t-116.5 2q-41 0 -114.5 -2t-100.5 -2q-4 0 -4 12.5t4 12.5q98 0 125.5 25.5t27.5 115.5v627q0 89 -28 115t-125 26q-4 0 -4 12t4 12q27 0 100.5 -3t114.5 -3q44 0 116.5 3t100.5 3q4 0 4 -12t-4 -12q-99 0 -127.5 -28.5t-28.5 -123.5v-24q101 16 174 16z" />
<glyph unicode="&#xff;" horiz-adv-x="1046" d="M365 1145q-40 0 -63 22.5t-23 63.5q0 38 23 60t63 22q41 0 63.5 -21.5t22.5 -60.5q0 -41 -22.5 -63.5t-63.5 -22.5zM723 1145q-41 0 -63.5 22.5t-22.5 63.5q0 39 22.5 60.5t63.5 21.5q40 0 62 -22t22 -60q0 -41 -22 -63.5t-62 -22.5zM1055 958q5 0 5 -12t-5 -12 q-61 0 -103 -33.5t-73 -118.5l-310 -780q-45 -120 -117 -214t-151 -132q-7 -5 -26.5 9t-30.5 34q-12 24 -13.5 51.5t7.5 28.5q103 20 174.5 66t117.5 145l-378 798q-41 86 -71.5 116t-84.5 30q-6 0 -6 12t6 12q27 0 82.5 -3t87.5 -3q46 0 112.5 3t90.5 3q6 0 6 -12t-6 -12 q-145 0 -88 -125l315 -647l240 633q29 72 0.5 105.5t-125.5 33.5q-5 0 -5 12t5 12q25 0 82 -3t102 -3q35 0 82.5 3t77.5 3z" />
<glyph unicode="&#x152;" horiz-adv-x="1871" d="M1747 303q0 3 5.5 4t11 -0.5t5.5 -5.5q-18 -162 -18 -270q0 -18 -6.5 -24.5t-24.5 -6.5h-610q-44 0 -145 -4t-150 -4q-207 0 -371 82.5t-254 224.5t-90 317q0 150 56.5 277t153 211.5t224.5 132t271 47.5q39 0 145 -2t154 -2h579q21 0 21 -18l4 -254q0 -4 -12 -4t-13 4 q-3 97 -65 163t-154 66h-129q-102 0 -134 -24t-32 -101v-426h250q98 0 141.5 34t43.5 111q0 5 11 5t11 -5q0 -45 -1 -95t-1 -70q0 -31 2 -92.5t2 -96.5q0 -6 -11 -6t-11 6q0 89 -45 128.5t-148 39.5h-244v-471q0 -79 30.5 -105t129.5 -26h170q88 0 158 73t90 187zM1036 168 v926q0 90 -42 124.5t-167 34.5q-256 0 -413.5 -155.5t-157.5 -435.5q0 -179 67.5 -324t196 -230t295.5 -85q129 0 175 27.5t46 117.5z" />
<glyph unicode="&#x153;" horiz-adv-x="1593" d="M1526 113q3 2 7.5 -2t6.5 -9.5t0 -9.5q-73 -62 -144.5 -89.5t-160.5 -27.5q-120 0 -212 61.5t-142 178.5q-65 -110 -170 -175t-230 -65t-222 69.5t-147.5 181.5t-50.5 245q0 98 29.5 182.5t79 144t113.5 102t132.5 63t135.5 20.5q122 0 212 -66.5t140 -177.5 q57 111 156.5 174.5t216.5 63.5q118 0 189 -62.5t71 -166.5q0 -48 -25 -48l-534 -2q-23 -97 -23 -202q0 -220 90 -337.5t254 -117.5q135 0 228 72zM1231 936q-181 0 -246 -211l408 10q1 95 -45.5 148t-116.5 53zM545 18q125 0 204 114.5t76 313.5q-2 132 -43.5 241 t-124.5 178t-192 69q-128 0 -196.5 -103t-65.5 -288q2 -142 44 -261t120 -191.5t178 -72.5z" />
<glyph unicode="&#x178;" horiz-adv-x="1247" d="M471 1466q-40 0 -63 22.5t-23 63.5q0 37 23.5 59.5t62.5 22.5q41 0 63.5 -22.5t22.5 -59.5q0 -41 -22.5 -63.5t-63.5 -22.5zM829 1466q-41 0 -63.5 22.5t-22.5 63.5q0 37 22.5 59.5t63.5 22.5q39 0 61.5 -22.5t22.5 -59.5q0 -41 -22 -63.5t-62 -22.5zM1255 1280 q5 0 5 -12.5t-5 -12.5q-72 0 -148 -54.5t-134 -149.5l-277 -422v-463q0 -90 31.5 -115.5t144.5 -25.5q4 0 4 -12.5t-4 -12.5q-30 0 -110 2t-131 2q-49 0 -131 -2t-113 -2q-5 0 -5 12.5t5 12.5q114 0 146 25.5t32 115.5v432l-340 498q-59 90 -109.5 124.5t-117.5 34.5 q-6 0 -6 12.5t6 12.5q24 0 73.5 -3t71.5 -3q61 0 158 3t127 3q6 0 6 -12.5t-6 -12.5q-78 0 -98 -22.5t14 -71.5l332 -483l246 383q60 94 43.5 144t-107.5 50q-6 0 -6 12.5t6 12.5q34 0 107 -3t133 -3q34 0 81 3t76 3z" />
<glyph unicode="&#x2c6;" horiz-adv-x="536" d="M47 924l211 200q9 8 23.5 8t23.5 -8l209 -200q3 -2 2 -6.5t-5 -7.5t-7 -1l-221 119l-224 -119q-2 -1 -6 2t-6 7t0 6z" />
<glyph unicode="&#x2dc;" horiz-adv-x="786" d="M557 1030q24 0 43.5 8.5t30 18.5t26.5 28q3 2 8 -0.5t7 -6.5t0 -7q-55 -75 -90.5 -101t-75.5 -26q-44 0 -130 24.5t-138 24.5q-9 0 -17 -0.5t-15 -3t-12 -4t-12 -6t-10 -6.5t-9.5 -8.5l-8 -8t-9 -9.5t-8.5 -9q-3 -2 -7.5 0.5t-6.5 6.5t0 7q96 129 178 129q31 0 117 -25.5 t139 -25.5z" />
<glyph unicode="&#x2000;" horiz-adv-x="840" />
<glyph unicode="&#x2001;" horiz-adv-x="1681" />
<glyph unicode="&#x2002;" horiz-adv-x="840" />
<glyph unicode="&#x2003;" horiz-adv-x="1681" />
<glyph unicode="&#x2004;" horiz-adv-x="560" />
<glyph unicode="&#x2005;" horiz-adv-x="420" />
<glyph unicode="&#x2006;" horiz-adv-x="280" />
<glyph unicode="&#x2007;" horiz-adv-x="280" />
<glyph unicode="&#x2008;" horiz-adv-x="210" />
<glyph unicode="&#x2009;" horiz-adv-x="336" />
<glyph unicode="&#x200a;" horiz-adv-x="93" />
<glyph unicode="&#x2010;" horiz-adv-x="577" d="M66 414q-6 -1 -8.5 21.5t-1.5 46t5 24.5l439 72q6 1 8 -21.5t0 -46t-8 -25.5z" />
<glyph unicode="&#x2011;" horiz-adv-x="577" d="M66 414q-6 -1 -8.5 21.5t-1.5 46t5 24.5l439 72q6 1 8 -21.5t0 -46t-8 -25.5z" />
<glyph unicode="&#x2012;" horiz-adv-x="577" d="M66 414q-6 -1 -8.5 21.5t-1.5 46t5 24.5l439 72q6 1 8 -21.5t0 -46t-8 -25.5z" />
<glyph unicode="&#x2013;" horiz-adv-x="1054" d="M70 446q-6 0 -8 20t-0.5 40t6.5 20h917q9 0 9 -40t-9 -40h-915z" />
<glyph unicode="&#x2014;" horiz-adv-x="1699" d="M70 446q-6 0 -8 20t-0.5 40t6.5 20h1562q9 0 9 -40t-9 -40h-1560z" />
<glyph unicode="&#x2018;" horiz-adv-x="344" d="M193 997q38 0 58.5 -22.5t20.5 -59.5q0 -81 -92 -81q-62 0 -97.5 46.5t-35.5 133.5q0 82 37 151.5t111 141.5q4 3 9 0t7 -7.5t0 -7.5q-100 -106 -100 -243q0 -56 18 -80q19 28 64 28z" />
<glyph unicode="&#x2019;" horiz-adv-x="321" d="M141 1296q62 0 96.5 -45.5t34.5 -132.5q0 -82 -36.5 -152.5t-108.5 -140.5q-9 -5 -16 4q-5 7 0 11q100 103 100 241q0 53 -21 84q-15 -30 -61 -30q-39 0 -60.5 21.5t-21.5 60.5q0 79 94 79z" />
<glyph unicode="&#x201a;" horiz-adv-x="321" d="M141 145q62 0 96.5 -45.5t34.5 -132.5q0 -84 -36.5 -153.5t-108.5 -139.5q-5 -4 -10.5 -1.5t-7 7.5t1.5 9q100 103 100 241q0 52 -21 84q-15 -30 -61 -30q-39 0 -60.5 21.5t-21.5 60.5q0 79 94 79z" />
<glyph unicode="&#x201c;" horiz-adv-x="622" d="M190 997q39 0 60.5 -22.5t21.5 -59.5q0 -81 -94 -81q-61 0 -96 47t-35 133q0 82 37 151.5t109 141.5q5 3 10.5 0t7.5 -7.5t0 -7.5q-100 -106 -100 -243q0 -56 18 -80q19 28 61 28zM494 997q38 0 58.5 -22.5t20.5 -59.5q0 -81 -92 -81q-62 0 -97.5 46.5t-35.5 133.5 q0 82 37 151.5t111 141.5q9 5 16 -4q5 -7 0 -11q-100 -106 -100 -243q0 -53 18 -82q18 30 64 30z" />
<glyph unicode="&#x201d;" horiz-adv-x="622" d="M141 1296q62 0 96.5 -45.5t34.5 -132.5q0 -82 -36.5 -152.5t-108.5 -140.5q-9 -5 -16 4q-5 7 0 11q100 103 100 241q0 53 -21 84q-15 -30 -61 -30q-39 0 -60.5 21.5t-21.5 60.5q0 79 94 79zM442 1296q63 0 98 -46t35 -132q0 -83 -37 -153t-110 -140q-4 -3 -9 0t-7 7.5 t0 7.5q100 103 100 241q0 58 -18 82q-19 -28 -62 -28q-39 0 -60.5 21.5t-21.5 60.5q0 79 92 79z" />
<glyph unicode="&#x201e;" horiz-adv-x="626" d="M141 145q62 0 96.5 -45.5t34.5 -132.5q0 -84 -36.5 -153.5t-108.5 -139.5q-5 -4 -10.5 -1.5t-7 7.5t1.5 9q100 103 100 241q0 52 -21 84q-15 -30 -61 -30q-39 0 -60.5 21.5t-21.5 60.5q0 79 94 79zM442 145q62 0 96.5 -45.5t34.5 -132.5q0 -84 -36 -154t-109 -139 q-5 -4 -10.5 -1.5t-7 7.5t1.5 9q100 103 100 241q0 53 -18 82q-19 -28 -64 -28q-38 0 -60 22t-22 60q0 79 94 79z" />
<glyph unicode="&#x2022;" horiz-adv-x="624" d="M313 285q-82 0 -138 56t-56 138q0 80 56.5 136.5t137.5 56.5q79 0 136 -57t57 -136q0 -81 -56.5 -137.5t-136.5 -56.5z" />
<glyph unicode="&#x2026;" horiz-adv-x="1363" d="M203 -23q-40 0 -64 24.5t-24 66.5q0 38 24 61t64 23q41 0 65.5 -23t24.5 -61q0 -42 -24.5 -66.5t-65.5 -24.5zM682 -23q-41 0 -64.5 24t-23.5 67q0 39 23.5 61.5t64.5 22.5t65.5 -23t24.5 -61q0 -42 -24 -66.5t-66 -24.5zM1161 -23q-41 0 -64.5 24t-23.5 67 q0 39 23.5 61.5t64.5 22.5t65.5 -23t24.5 -61q0 -42 -24.5 -66.5t-65.5 -24.5z" />
<glyph unicode="&#x202f;" horiz-adv-x="336" />
<glyph unicode="&#x2039;" horiz-adv-x="622" d="M483 154l-362 307q-9 7 -9 21.5t9 23.5l362 305q6 8 14 -2q4 -5 1 -8l-250 -318l250 -317q1 -3 -1.5 -7.5t-6.5 -6t-7 1.5z" />
<glyph unicode="&#x203a;" horiz-adv-x="622" d="M139 811l363 -305q9 -9 9 -23.5t-9 -21.5l-363 -307q-3 -4 -7.5 -2.5t-6.5 6t0 8.5l250 315l-250 320q-2 4 4 9.5t10 0.5z" />
<glyph unicode="&#x205f;" horiz-adv-x="420" />
<glyph unicode="&#x20ac;" horiz-adv-x="1202" d="M106 516q-15 0 -15 22.5t15 22.5h91q31 186 186.5 304t376.5 118q198 0 301 -68q10 -6 14 -8t10 -7t7.5 -9t1.5 -10.5t-4 -14.5l-78 -176q-2 -3 -7.5 -3t-11 3.5t-4.5 7.5q22 69 -15 129t-108.5 92.5t-152.5 32.5q-151 0 -256 -110t-119 -281h618q15 0 6 -22 q-9 -23 -24 -23h-832zM1087 264q1 6 13 4t12 -8l-29 -192q-3 -18 -7 -24t-21 -13q-163 -56 -330 -56q-96 0 -177 23t-138 60.5t-100.5 90t-68.5 107t-38 115.5h-94q-15 0 -15 21.5t15 21.5h794q15 0 6 -21q-9 -22 -24 -22h-533q21 -102 70.5 -183.5t133.5 -133.5t189 -52 q124 0 213 65t129 197z" />
<glyph unicode="&#x2122;" horiz-adv-x="1472" d="M582 1311q2 5 13 5t11 -5q-8 -172 -8 -187q0 -4 -11.5 -4t-11.5 4q0 77 -23 104t-87 27q-50 0 -65 -14.5t-15 -58.5v-379q0 -46 17.5 -60t80.5 -14q5 0 5 -12t-5 -12q-17 0 -66 1t-81 1q-28 0 -76.5 -1t-66.5 -1q-5 0 -5 12t5 12q61 0 79.5 14.5t18.5 59.5v381 q0 45 -14.5 58t-65.5 13q-64 0 -91 -27t-36 -104q0 -4 -12.5 -4t-12.5 4q13 72 13 181q0 6 12 6.5t12 -6.5q0 -23 56 -23q23 0 85.5 -1t98.5 -1q43 0 95 1t69 1q41 0 59.5 5t22.5 24zM1409 729q3 0 3 -12t-3 -12q-16 0 -60 1t-69 1q-31 0 -78 -1t-63 -1q-5 0 -5 12t5 12 q64 0 83.5 14.5t16.5 59.5l-12 385l-209 -473q-3 -6 -12.5 -6t-10.5 6l-227 438l-10 -322q-6 -102 67 -102q3 0 3 -12t-3 -12q-12 0 -42 1t-50 1q-17 0 -50.5 -1t-47.5 -1q-3 0 -3 12t3 12q44 0 64 24t22 78l12 381q-36 43 -86 43q-5 0 -5 12.5t5 12.5q9 0 33 -2t31 -2 q13 0 35.5 2t25.5 2q16 0 30.5 -13t33.5 -50l196 -390l182 420q6 15 17 24t22 9q3 0 25 -2t39 -2q21 0 47 2t37 2q5 0 5 -12.5t-5 -12.5q-49 0 -70 -16.5t-20 -67.5l12 -368q2 -45 17.5 -59.5t68.5 -14.5z" />
<glyph unicode="&#x25fc;" horiz-adv-x="962" d="M0 963h963v-963h-963v963z" />
</font>
</defs>
</svg>
