<?xml version="1.0" standalone="no"?>
<!DOCTYPE svg PUBLIC "-//W3C//DTD SVG 1.1//EN" "http://www.w3.org/Graphics/SVG/1.1/DTD/svg11.dtd" >
<svg xmlns="http://www.w3.org/2000/svg" xmlns:xlink="http://www.w3.org/1999/xlink" version="1.1">
<metadata></metadata>
<defs>
<font id="cormorant_unicasemedium" horiz-adv-x="1175" >
<font-face units-per-em="2048" ascent="1485" descent="-563" />
<missing-glyph horiz-adv-x="479" />
<glyph horiz-adv-x="0" />
<glyph horiz-adv-x="682" />
<glyph unicode=" "  horiz-adv-x="479" />
<glyph unicode="&#x09;" horiz-adv-x="479" />
<glyph unicode="&#xa0;" horiz-adv-x="479" />
<glyph unicode="!" horiz-adv-x="516" d="M147 1266q-1 7 17 12t43 7.5t51 2.5q41 0 77.5 -6t33.5 -16q-62 -278 -93 -879q0 -7 -21.5 -7t-21.5 7q-11 214 -16.5 306.5t-24.5 271.5t-45 301zM256 -23q-46 0 -73 27t-27 76q0 43 27 67.5t73 24.5q47 0 72.5 -24.5t25.5 -67.5q0 -50 -25.5 -76.5t-72.5 -26.5z" />
<glyph unicode="&#x22;" horiz-adv-x="591" d="M115 748l-35 497q-3 25 67 49q68 23 99 15q10 -2 8 -9l-113 -550q-1 -3 -7.5 -5t-12.5 -1.5t-6 4.5zM414 748l-37 497q-2 26 73 50q70 23 97 14q8 -3 6 -9l-113 -550q-1 -3 -7.5 -5t-12.5 -1.5t-6 4.5z" />
<glyph unicode="#" horiz-adv-x="1077" d="M948 649q9 0 9 -44t-9 -44h-143l-57 -319h129q9 0 9 -43t-9 -43h-144l-57 -322q-3 -4 -22 -3.5t-40.5 5.5t-19.5 10l55 310h-299l-57 -322q-3 -4 -22 -3.5t-40.5 5.5t-19.5 10l55 310h-137q-6 0 -8 21.5t-0.5 43t6.5 21.5h154l55 319h-135q-6 0 -8 22t-0.5 44t6.5 22h153 l60 338q3 5 22 4t41 -7.5t21 -12.5l-58 -322h297l60 338q3 5 22 4t41 -7.5t21 -12.5l-58 -322h127zM664 242l55 319h-297l-57 -319h299z" />
<glyph unicode="$" horiz-adv-x="849" d="M766 256q0 -109 -81.5 -186.5t-217.5 -92.5v-186q0 -13 -25.5 -13t-25.5 13v184h-2q-77 0 -147.5 19t-116.5 53q-16 11 -19 41l-16 211q-1 6 4 9t11 2t7 -5q37 -108 111.5 -191.5t167.5 -97.5v418q-15 10 -37 21q-51 28 -75.5 42t-63.5 42.5t-58 53t-34 61t-15 77.5 q0 108 80.5 174.5t202.5 75.5v168q0 15 25.5 15t25.5 -15v-166q117 -3 209 -47q18 -7 23.5 -14.5t7.5 -22.5l10 -184q0 -8 -11 -9.5t-14 5.5q-15 65 -76.5 138t-148.5 93v-379q3 -2 39 -20q37 -19 55.5 -29t51 -30t50 -34.5t40.5 -37.5t34.5 -44.5t20 -50.5t8.5 -61z M260 793q0 -67 40.5 -114t115.5 -89v356q-75 -1 -115.5 -43.5t-40.5 -109.5zM467 12q68 5 115 46t47 122q0 73 -43 126.5t-119 99.5v-394z" />
<glyph unicode="%" d="M307 455q-112 0 -185 77t-73 189q0 109 73 185.5t185 76.5q110 0 181 -77.5t71 -188.5t-71.5 -186.5t-180.5 -75.5zM293 -14q-2 -4 -15.5 2t-25.5 15t-10 13l651 957q6 6 31 -11.5t22 -23.5zM322 481q26 0 45 11.5t30 29.5t17 48t8 60t2 72q0 252 -129 252q-33 0 -56 -17 t-34.5 -50t-16 -70.5t-4.5 -87.5q0 -248 138 -248zM893 -10q-111 0 -184.5 77t-73.5 189q0 109 73.5 185.5t184.5 76.5q110 0 181 -77.5t71 -188.5t-71.5 -186.5t-180.5 -75.5zM907 18q33 0 54.5 15.5t31.5 48t13.5 67.5t3.5 89q0 251 -129 251q-33 0 -56 -17t-34.5 -50 t-16 -70.5t-4.5 -87.5q0 -246 137 -246z" />
<glyph unicode="&#x26;" horiz-adv-x="1103" d="M1100 25q6 0 6 -12.5t-6 -12.5h-236q-58 0 -168 76q-134 -101 -311 -101q-150 0 -225.5 61.5t-75.5 151.5q0 43 16 81.5t50 74t64.5 60.5t80.5 61q-55 78 -72 117q-37 78 -37 147q0 114 87.5 184t203.5 70q35 0 67.5 -7t66 -23.5t53.5 -50t20 -79.5q0 -25 -6.5 -49.5 t-15 -42.5t-27.5 -39.5t-31 -34t-40 -33.5t-40.5 -29.5t-46.5 -30.5t-45 -29q96 -143 256 -281q64 -52 72 -57q55 93 55 188q0 137 -127 137q-6 0 -6.5 12.5t6.5 12.5l365 2q6 0 6 -12.5t-6 -12.5q-32 0 -54.5 -5t-35.5 -11.5t-23 -23t-14 -27.5t-11 -38q-1 -5 -2 -7 q-48 -145 -120 -240q95 -67 178.5 -105.5t128.5 -41.5zM322 815q0 -110 96 -258q135 112 135 234q0 68 -36.5 110.5t-92.5 42.5q-47 0 -74.5 -33t-27.5 -96zM475 37q111 0 191 61q-66 51 -119 99q-127 111 -234 245q-84 -84 -84 -184q0 -101 69.5 -161t176.5 -60z" />
<glyph unicode="'" horiz-adv-x="292" d="M115 748l-37 497q-1 26 73 51q71 23 97 13q8 -3 6 -9l-113 -550q-1 -3 -7.5 -5t-12.5 -1.5t-6 4.5z" />
<glyph unicode="(" horiz-adv-x="632" d="M119 623q0 291 116 522t326 340q3 2 7.5 -3t0.5 -9q-280 -280 -280 -850t280 -850q4 -3 -0.5 -9t-7.5 -4q-210 111 -326 341.5t-116 521.5z" />
<glyph unicode=")" horiz-adv-x="632" d="M512 623q0 -291 -116 -521.5t-324 -341.5q-3 -2 -8.5 4t-2.5 9q281 278 281 850t-281 850q-3 4 2.5 9t8.5 3q208 -109 324 -340t116 -522z" />
<glyph unicode="*" horiz-adv-x="917" d="M463 1083l-14 263q-1 26 86 50q75 21 94 12q3 -2 2 -5l-148 -320q-1 -6 -10.5 -6t-9.5 6zM418 1047l-256 67q-27 8 -20 108q5 77 18 85h4l260 -242q3 -3 2.5 -7t-3 -8t-5.5 -3zM866 989l-352 41q-6 0 -8.5 10t2.5 11l246 94q25 9 75 -66q42 -62 41 -85q0 -5 -4 -5z M295 774q-14 -24 -106 12q-68 27 -77 43q-2 3 1 5l309 172q4 4 12 -2t6 -11zM547 639l-72 346q-1 4 7.5 10.5t11.5 3.5l165 -206q18 -21 -43 -97q-45 -54 -64 -60q-4 -1 -5 3z" />
<glyph unicode="+" horiz-adv-x="815" d="M745 504q9 0 9 -43t-9 -43h-294v-295q0 -6 -21.5 -8.5t-43 -1t-21.5 5.5v299h-295q-6 0 -8 21.5t-0.5 43t6.5 21.5h297v293q0 9 43 9t43 -9v-293h294z" />
<glyph unicode="," horiz-adv-x="454" d="M207 168q67 0 103 -48t36 -140q0 -158 -151 -306q-5 -4 -11 -1.5t-7.5 7.5t1.5 9q101 104 101 241q0 56 -21 84q-18 -30 -68 -30q-41 0 -64.5 25t-23.5 67q0 44 27 68t78 24z" />
<glyph unicode="-" horiz-adv-x="577" d="M66 412q-6 -1 -8.5 22.5t-1.5 48t5 25.5l439 72q6 2 8 -22t0 -49t-8 -26z" />
<glyph unicode="." horiz-adv-x="411" d="M207 -23q-46 0 -73.5 27t-27.5 74q0 44 27.5 70t73.5 26q47 0 72.5 -25.5t25.5 -70.5q0 -48 -25.5 -74.5t-72.5 -26.5z" />
<glyph unicode="/" horiz-adv-x="706" d="M137 -336q-3 -7 -44.5 5t-39.5 20l516 1806q2 3 11 3t22 -3.5t25 -8t19.5 -10t6.5 -8.5z" />
<glyph unicode="0" horiz-adv-x="1120" d="M563 -27q-215 0 -351 142t-136 368q0 221 136.5 358.5t352.5 137.5q213 0 346 -139t133 -363t-134 -364t-347 -140zM588 6q140 0 208 118.5t68 328.5q0 242 -91.5 367.5t-229.5 125.5q-137 0 -215 -123t-78 -325q0 -218 91.5 -355t246.5 -137z" />
<glyph unicode="1" horiz-adv-x="704" d="M109 0q-6 0 -6 12.5t6 12.5q115 0 149.5 26t34.5 115v555q0 107 -35 125t-149 -33q-11 -4 -17 10q-2 8 4 11l322 147q7 3 13.5 -3t6.5 -11v-801q0 -48 5.5 -73t26.5 -41.5t54.5 -21.5t96.5 -5q5 0 5 -12.5t-5 -12.5q-31 0 -116.5 2t-139.5 2q-53 0 -139 -2t-117 -2z" />
<glyph unicode="2" horiz-adv-x="919" d="M74 25q116 107 191 180.5t145 150.5t108.5 135.5t61 117.5t22.5 114q0 93 -53.5 154t-151.5 61q-186 0 -276 -264q-2 -6 -17 -2q-6 3 -6 6l82 323q2 8 17 3q8 -3 6 -7q-7 -36 2 -47.5t28 -11.5q13 0 93 22.5t149 22.5q131 0 210 -69.5t79 -182.5q0 -49 -19 -96.5t-46 -86 t-81 -90.5t-100.5 -91t-129 -108.5t-142.5 -123.5q-6 -6 -2.5 -10t12.5 -4q352 0 438 13q85 12 112 53q13 19 23 57q1 6 13 5t12 -7l-25 -219q0 -8 -5.5 -15.5t-12.5 -7.5h-723q-8 0 -14 9t0 16z" />
<glyph unicode="3" horiz-adv-x="909" d="M479 449q146 -4 231 -83t85 -192q0 -74 -41.5 -144.5t-124 -135.5t-215.5 -121t-305 -95q-5 -1 -9 5t-4 12t4 8q118 28 210.5 69t150 85.5t95 97t52.5 100t15 97.5q0 102 -61.5 174.5t-176.5 72.5q-83 0 -131 -22q-8 -5 -14.5 3.5t0.5 14.5q64 42 178 51 q88 70 121.5 128.5t33.5 132.5q0 98 -55 161.5t-160 63.5t-170.5 -57.5t-103.5 -188.5q-1 -4 -7.5 -4.5t-12.5 2t-5 6.5l80 311q2 6 17 2q6 -3 6 -6q-12 -63 33 -63q15 0 95.5 25.5t151.5 25.5q123 0 208 -62.5t85 -164.5q0 -81 -62.5 -155.5t-193.5 -153.5z" />
<glyph unicode="4" horiz-adv-x="983" d="M893 92q6 0 7 -22.5t-1.5 -45t-7.5 -22.5q-153 6 -158 6v-274q0 -23 -18 -29l-111 -55q-10 -6 -14 -3t-4 15v350q-145 4 -541 4q-9 0 -14.5 8t0.5 17l667 940q6 8 20.5 4t14.5 -14v-883q26 1 79.5 2t80.5 2zM152 82q188 0 434 4v641l-443 -631q-11 -14 9 -14z" />
<glyph unicode="5" horiz-adv-x="886" d="M244 805q-28 0 -31 -29l-39 -207q598 -6 598 -342q0 -159 -148 -286.5t-487 -264.5q-6 -3 -12 8t0 15q136 62 231 125.5t148 125.5t75.5 120.5t22.5 122.5q0 152 -119.5 234.5t-345.5 82.5q-10 0 -15 7.5t-3 17.5l65 364q1 10 2.5 13.5t6 6t16.5 3.5q410 43 477 60 q50 12 61 35q3 6 7 17q2 7 14 4q9 -2 6 -8l-39 -178q-7 -25 -18.5 -31t-40.5 -6z" />
<glyph unicode="6" horiz-adv-x="1026" d="M670 602q139 0 208.5 -75.5t69.5 -186.5q0 -154 -123 -260.5t-305 -106.5q-181 0 -300.5 146t-119.5 373q0 133 47 257.5t135.5 227.5t226.5 174.5t308 93.5q5 1 8 -3.5t2 -10t-6 -6.5q-135 -28 -242 -97.5t-173 -164.5t-100 -205t-34 -226q0 -134 37.5 -251.5t109 -192 t161.5 -74.5q93 0 143.5 73.5t50.5 199.5q0 119 -47 187.5t-137 68.5q-50 0 -91.5 -19.5t-88.5 -66.5q-6 -6 -16 1t-7 13q104 131 283 131z" />
<glyph unicode="7" horiz-adv-x="974" d="M455 -211q-15 -33 -43 -49l-158 -64q-5 -2 -11 4.5t-5 10.5l565 1122q8 14 -8 14h-178t-142 -2.5t-112.5 -3.5t-84.5 -6.5t-63.5 -9t-43.5 -14t-30.5 -17t-18.5 -23.5t-13.5 -28t-10.5 -35q-2 -5 -8.5 -5.5t-11.5 2.5t-4 7l76 322q2 3 8.5 3.5t11.5 -1t4 -4.5 q-7 -35 10 -44.5t86 -9.5h615q9 0 15 -9t3 -17z" />
<glyph unicode="8" horiz-adv-x="1169" d="M692 750q47 -23 74.5 -37t69.5 -39t67.5 -45t55.5 -50t46 -60t27.5 -68.5t11.5 -81.5q0 -111 -66 -202.5t-175.5 -142.5t-237.5 -51q-194 0 -317 111.5t-123 263.5q0 120 77.5 219.5t198.5 165.5q-80 49 -124 107t-44 137q0 65 33 118t86 85t117 49.5t129 17.5 q143 0 229 -68t86 -161q0 -83 -62 -154.5t-159 -113.5zM543 1210q-74 0 -117 -44t-43 -119q0 -40 16.5 -75.5t39 -61.5t64.5 -54.5t74 -46t87 -45.5q94 71 94 205q0 101 -60 171t-155 70zM625 16q114 0 185 73.5t71 193.5q0 59 -21 110.5t-50 86t-81 71.5t-89.5 57t-103 53 t-96.5 50q-147 -110 -147 -305q0 -105 40.5 -193.5t117 -142.5t174.5 -54z" />
<glyph unicode="9" horiz-adv-x="1026" d="M352 356q-67 0 -119.5 24.5t-83 66t-46 90.5t-15.5 102q0 150 115.5 247t288.5 97q187 0 308.5 -143.5t121.5 -368.5q0 -136 -48.5 -266t-138.5 -238t-230.5 -183.5t-311.5 -98.5q-5 -1 -8 4t-3 11t4 7q138 28 248 101.5t177.5 173.5t103 214.5t35.5 233.5 q0 132 -37.5 248.5t-108.5 190t-160 73.5q-90 0 -136 -65.5t-46 -186.5q0 -123 44.5 -198.5t127.5 -75.5q49 0 89.5 19t90.5 65q4 3 9.5 1.5t10 -7t1.5 -9.5q-101 -129 -283 -129z" />
<glyph unicode=":" horiz-adv-x="411" d="M209 674q-48 0 -74 25.5t-26 74.5q0 43 26.5 67.5t73.5 24.5q46 0 72 -24.5t26 -67.5q0 -49 -26 -74.5t-72 -25.5zM209 -23q-47 0 -73.5 27t-26.5 76q0 43 26.5 67.5t73.5 24.5q46 0 72 -24.5t26 -67.5q0 -49 -26 -76t-72 -27z" />
<glyph unicode=";" horiz-adv-x="458" d="M213 674q-47 0 -73.5 25.5t-26.5 74.5q0 43 27 67.5t73 24.5q47 0 72.5 -24.5t25.5 -67.5q0 -100 -98 -100zM211 168q65 0 102 -49t37 -142q0 -85 -38 -156.5t-115 -146.5q-6 -6 -14 1.5t-3 13.5q101 104 101 241q0 57 -19 82q-19 -28 -67 -28q-41 0 -66 24.5t-25 65.5 q0 94 107 94z" />
<glyph unicode="&#x3c;" horiz-adv-x="833" d="M758 238q15 -8 13 -58q-2 -37 -13 -35l-684 306q-10 5 -10 34t10 35l684 301q8 5 12 -16q6 -38 -6 -64q-2 -6 -6 -8l-578 -248z" />
<glyph unicode="=" horiz-adv-x="958" d="M70 584q-6 0 -8 21.5t-0.5 43t6.5 21.5h821q9 0 9 -43t-9 -43h-819zM70 297q-6 0 -8 21.5t-0.5 43t6.5 21.5h821q9 0 9 -43t-9 -43h-819z" />
<glyph unicode="&#x3e;" horiz-adv-x="833" d="M760 518q10 -6 10 -35t-10 -34l-684 -304q-7 -3 -11 13q-8 34 3 66q4 9 8 12l577 247l-577 248q-14 6 -13 55q2 38 13 35z" />
<glyph unicode="?" horiz-adv-x="681" d="M328 1249q-41 0 -56.5 -25t-21.5 -67q-3 -22 -7 -36.5t-13 -32.5t-26.5 -27.5t-43.5 -9.5q-40 0 -60 23t-20 54q0 63 73.5 107.5t180.5 44.5q124 0 207.5 -63.5t83.5 -180.5q0 -33 -8.5 -64t-17 -51t-32 -48t-32.5 -38t-41.5 -40t-38.5 -35q-69 -65 -99 -122.5 t-30 -129.5q0 -21 12 -111q1 -4 -5 -7t-13 -3t-9 4q-24 54 -38.5 125.5t-14.5 120.5q0 53 20.5 96t50 74t58.5 63t49.5 80.5t20.5 110.5q0 84 -35.5 136t-93.5 52zM324 -23q-48 0 -74.5 27t-26.5 76q0 43 27 67.5t74 24.5q46 0 72 -24.5t26 -67.5q0 -49 -26 -76t-72 -27z " />
<glyph unicode="@" horiz-adv-x="1478" d="M956 168q-74 0 -102 48t-10 134l14 68q-71 -116 -156.5 -185t-158.5 -69q-55 0 -86.5 41.5t-20.5 128.5q16 109 85 216.5t161.5 174t173.5 66.5q64 0 98 -46q38 23 47 60q5 5 29 1q8 -1 6 -3l-84 -461q-12 -64 2 -97.5t68 -33.5q86 0 162 90.5t76 241.5q0 203 -146 345 t-362 142q-116 0 -212.5 -46t-160 -123.5t-98.5 -179t-35 -214.5q0 -247 154.5 -397t408.5 -150q97 0 174 21.5t170 76.5q6 6 11 -5q4 -7 -1 -11q-176 -147 -420 -147q-168 0 -303 65.5t-216 195t-81 302.5q0 142 56.5 266.5t150.5 209.5t217 134t254 49q117 0 216.5 -38 t166.5 -103t104.5 -151t37.5 -181q0 -115 -52.5 -215.5t-143 -160.5t-194.5 -60zM612 260q76 0 165 114.5t116 241.5q9 55 -10.5 91.5t-63.5 35.5q-78 -3 -153.5 -102.5t-98.5 -228.5q-28 -152 45 -152z" />
<glyph unicode="A" horiz-adv-x="1445" d="M1442 25q9 0 9 -12.5t-9 -12.5q-39 0 -122 4t-122 4q-45 0 -113.5 -4t-107.5 -4q-9 0 -9 12.5t9 12.5q102 0 123 32t-23 123l-229 477h-377l-168 -389q-51 -123 -6.5 -183t176.5 -60q9 0 9 -12.5t-9 -12.5q-38 0 -112.5 4t-129.5 4q-52 0 -121 -4t-110 -4q-9 0 -9 12.5 t9 12.5q83 0 135.5 53t120.5 211l436 1005q2 6 15 6t16 -6l489 -1013q71 -149 120 -202.5t110 -53.5zM492 705h333l-176 366z" />
<glyph unicode="B" horiz-adv-x="1167" d="M698 721q165 -15 265 -111t100 -235q0 -164 -122.5 -273.5t-305.5 -109.5q-40 0 -146 6t-153 6q-49 0 -133 -2t-115 -2q-6 0 -6 12.5t6 12.5q104 0 136 26.5t32 114.5v948q0 88 -31.5 114.5t-134.5 26.5q-4 0 -4 12.5t4 12.5q31 0 114 -3t132 -3q36 0 122 6t124 6 q176 0 266 -72.5t90 -195.5q0 -100 -63 -178t-177 -119zM541 1251q-72 0 -97.5 -26t-25.5 -115v-389q51 -2 90 -2q136 0 202 77.5t66 204.5q0 115 -58 182.5t-177 67.5zM602 33q287 0 287 293q0 156 -86 250.5t-244 95.5q-55 3 -141 -4v-502q0 -75 36 -104t148 -29z" />
<glyph unicode="C" horiz-adv-x="1370" d="M854 1303q95 0 194.5 -18t159.5 -48q17 -9 22 -18t7 -31l25 -248q0 -5 -11 -6.5t-12 4.5q-53 159 -173.5 238t-291.5 79q-225 0 -355 -150t-130 -400q0 -190 72.5 -350t199 -253.5t277.5 -93.5q291 0 419 338q3 6 14 4t11 -8l-31 -244q-3 -27 -7.5 -34.5t-22.5 -14.5 q-180 -74 -385 -74q-127 0 -236 28t-188 77.5t-140 114t-98 141t-55.5 155t-18.5 158.5q0 143 63 267t167.5 208t241 131.5t282.5 47.5z" />
<glyph unicode="D" horiz-adv-x="1425" d="M635 -8q-39 0 -152.5 6t-165.5 6q-50 0 -133 -2t-114 -2q-6 0 -6 12.5t6 12.5q106 0 137 26t31 115v948q0 88 -30.5 114.5t-135.5 26.5q-6 0 -6 12.5t6 12.5q31 0 113 -3t132 -3q48 0 150.5 5t138.5 5q159 0 294 -48t228 -131t145 -197.5t52 -245.5q0 -150 -55 -277 t-149 -212.5t-220 -133t-266 -47.5zM614 29q234 0 379.5 154.5t145.5 432.5q0 177 -62 320.5t-179.5 228t-270.5 84.5q-131 0 -179.5 -26t-48.5 -113v-922q0 -88 43.5 -123.5t171.5 -35.5z" />
<glyph unicode="E" horiz-adv-x="1110" d="M987 311q0 4 6.5 4.5t12.5 -2t6 -6.5q-21 -155 -21 -276q0 -18 -6 -24.5t-24 -6.5h-873q-6 0 -6 12.5t6 12.5q106 0 136 26t30 115v948q0 88 -30.5 114.5t-135.5 26.5q-6 0 -6 12.5t6 12.5h838q18 0 18 -18l4 -261q0 -5 -11 -5.5t-11 5.5q-17 112 -82.5 172t-171.5 60 h-107q-88 0 -118.5 -26.5t-30.5 -100.5v-416h225q105 0 154 36t49 112q0 4 11 4t11 -4q0 -46 -1 -98.5t-1 -73.5q0 -32 3 -95t3 -100q0 -6 -12 -6t-12 6q0 88 -50.5 130t-160.5 42h-219v-469q0 -75 27.5 -101t111.5 -26h133q116 0 193 68.5t106 195.5z" />
<glyph unicode="F" horiz-adv-x="1050" d="M944 1262l4 -261q0 -5 -11 -5.5t-11 5.5q-17 112 -82.5 172t-171.5 60h-107q-87 0 -118 -25.5t-31 -95.5v-446h188q112 0 163.5 36t51.5 111q0 6 12.5 6t12.5 -6q0 -46 -1 -98.5t-1 -73.5q0 -32 2 -95t2 -100q0 -4 -12.5 -4t-12.5 4q0 88 -53.5 130t-169.5 42h-182v-444 q0 -49 7.5 -75.5t34.5 -44.5t71.5 -23.5t125.5 -5.5q5 0 5 -12.5t-5 -12.5q-40 0 -146 2t-177 2q-50 0 -134.5 -2t-115.5 -2q-6 0 -6 12.5t6 12.5q109 0 140.5 26t31.5 115v948q0 88 -30.5 114.5t-135.5 26.5q-6 0 -6 12.5t6 12.5h838q18 0 18 -18z" />
<glyph unicode="G" horiz-adv-x="1466" d="M831 -25q-169 0 -308 51t-231 139.5t-142 207t-50 254.5q0 197 101.5 352t279 239.5t398.5 84.5q97 0 191 -18t153 -50q12 -7 17.5 -14t6.5 -12t2 -21l25 -248q0 -5 -11 -6.5t-12 4.5q-54 152 -174 234.5t-289 82.5q-243 0 -374 -148.5t-131 -406.5q0 -304 169.5 -497 t430.5 -193q73 0 117 9t77 36t46.5 75.5t13.5 127.5q0 54 -2 85t-10.5 59t-21.5 40t-40.5 21.5t-60.5 11.5t-89 2q-7 0 -10.5 8.5t-1 16.5t9.5 8q234 -16 473 -4q8 0 9 -14.5t-9 -14.5q-28 1 -43.5 -4t-27 -15.5t-16 -42t-6 -68t-1.5 -109.5q0 -82 7.5 -130t7.5 -51 q0 -11 -5 -15t-20 -9q-251 -58 -449 -58z" />
<glyph unicode="H" horiz-adv-x="1558" d="M1487 25q5 0 5 -12.5t-5 -12.5q-31 0 -118 2t-136 2q-60 0 -145 -2t-113 -2q-6 0 -6 12.5t6 12.5q48 0 77.5 3.5t50.5 11.5t30.5 25.5t13.5 40t4 60.5v477h-745v-477q0 -48 5.5 -73t25.5 -41.5t52.5 -21.5t92.5 -5q4 0 4 -12.5t-4 -12.5q-32 0 -119 2t-144 2 q-50 0 -134 -2t-115 -2q-6 0 -6 12.5t6 12.5q109 0 140.5 26t31.5 115v948q0 88 -31 114.5t-139 26.5q-6 0 -6 12.5t6 12.5q31 0 114 -3t133 -3q57 0 144.5 3t118.5 3q4 0 4 -12.5t-4 -12.5q-111 0 -143.5 -28t-32.5 -117v-420h745v420q0 47 -5.5 72.5t-25 43.5t-53 23.5 t-92.5 5.5q-6 0 -6 12.5t6 12.5q28 0 113 -3t145 -3q49 0 136 3t118 3q5 0 5 -12.5t-5 -12.5q-110 0 -142 -26.5t-32 -114.5v-948q0 -89 32 -115t142 -26z" />
<glyph unicode="I" horiz-adv-x="686" d="M426 166q0 -90 29 -115.5t137 -25.5q4 0 4 -12.5t-4 -12.5q-30 0 -114 2t-138 2q-49 0 -133 -2t-115 -2q-4 0 -4 12.5t4 12.5q106 0 137 26t31 115v948q0 88 -31.5 114.5t-136.5 26.5q-4 0 -4 12.5t4 12.5q31 0 115 -3t133 -3q54 0 138.5 3t113.5 3q4 0 4 -12.5t-4 -12.5 q-104 0 -135 -28t-31 -117v-944z" />
<glyph unicode="J" horiz-adv-x="671" d="M586 1280q4 0 4 -12.5t-4 -12.5q-91 0 -117.5 -28t-26.5 -117v-1151q0 -213 -99.5 -335t-285.5 -122q-72 0 -115.5 26.5t-43.5 72.5q0 34 22 57t60 23q31 0 53 -14t34.5 -34.5t23 -41t26.5 -34.5t37 -14q63 0 94 80t31 260v1231q0 46 -6.5 71.5t-29 42.5t-58 22t-99.5 5 q-4 0 -4 12.5t4 12.5q37 0 128.5 -3t143.5 -3q49 0 125 3t103 3z" />
<glyph unicode="K" horiz-adv-x="1335" d="M1327 25q6 0 6 -12.5t-6 -12.5h-229q-15 0 -38.5 -0.5t-29.5 -1t-22 3t-19.5 6.5t-19 15.5t-23 24.5t-29 38t-39 51.5t-51.5 70t-69 89.5l-297 385l-62 -59v-457q0 -90 29.5 -115.5t136.5 -25.5q6 0 6 -12.5t-6 -12.5q-31 0 -114 2t-134 2q-50 0 -133 -2t-114 -2 q-6 0 -6 12.5t6 12.5q106 0 137 26t31 115v948q0 88 -30.5 114.5t-135.5 26.5q-6 0 -6 12.5t6 12.5q31 0 113 -3t132 -3q52 0 135.5 3t112.5 3q5 0 5 -12.5t-5 -12.5q-104 0 -135 -28t-31 -117v-434l420 424q78 76 63.5 115.5t-118.5 39.5q-6 0 -6 12.5t6 12.5 q28 0 104.5 -3t141.5 -3q64 0 136 3t97 3q6 0 6 -12.5t-6 -12.5q-88 0 -188 -42.5t-185 -125.5l-295 -292l297 -387q73 -96 125 -161.5t94.5 -108.5t68 -65.5t56.5 -33.5t48 -12.5t54 -1.5h9z" />
<glyph unicode="L" horiz-adv-x="1099" d="M397 1112v-938q0 -81 27 -104t123 -23h174q130 0 215.5 77t110.5 210q1 5 12.5 3.5t11.5 -7.5q-18 -144 -18 -299q0 -17 -7 -24t-24 -7h-952q-6 0 -6 12.5t6 12.5q105 0 134 25.5t29 115.5v948q0 89 -29 115t-134 26q-6 0 -6 12.5t6 12.5q28 0 111 -3t134 -3 q52 0 135.5 3t112.5 3q5 0 5 -12.5t-5 -12.5q-105 0 -135.5 -27t-30.5 -116z" />
<glyph unicode="M" horiz-adv-x="1726" d="M1677 25q5 0 5 -12.5t-5 -12.5q-31 0 -114.5 2t-132.5 2q-51 0 -129.5 -2t-106.5 -2q-6 0 -6 12.5t6 12.5q99 0 127.5 26t24.5 115l-39 901l-453 -1053q-3 -8 -16.5 -8t-16.5 8l-510 1045l-16 -823q-2 -109 39 -160t135 -51q5 0 5 -12.5t-5 -12.5q-28 0 -94 2t-107 2 q-39 0 -105 -2t-91 -2q-4 0 -4 12.5t4 12.5q169 0 172 211l18 917q-66 102 -176 102q-4 0 -4 12.5t4 12.5q26 0 77 -2t68 -2q29 0 70 2t49 2q27 0 43 -19t51 -87l455 -922l426 977q23 51 64 51q6 0 35 -2t51 -2q42 0 97.5 2t78.5 2q6 0 6 -12.5t-6 -12.5 q-101 0 -145.5 -32.5t-41.5 -114.5l45 -942q2 -48 8.5 -73t25.5 -41.5t49 -21.5t85 -5z" />
<glyph unicode="N" horiz-adv-x="1492" d="M1454 1280q6 0 6 -12.5t-6 -12.5q-166 0 -166 -211v-1071q0 -4 -10.5 -5.5t-13.5 1.5l-961 1139v-872q0 -108 39.5 -159.5t122.5 -51.5q6 0 6 -12.5t-6 -12.5q-25 0 -86.5 2t-99.5 2t-105.5 -2t-95.5 -2q-6 0 -6 12.5t6 12.5q89 0 130.5 51.5t41.5 159.5v929 q-90 90 -178 90q-6 0 -6 12.5t6 12.5q25 0 76.5 -2t72.5 -2q38 0 90 2t62 2q13 0 22.5 -6.5t16 -16.5t23.5 -34.5t36 -48.5l764 -920v790q0 107 -39 159t-121 52q-5 0 -5 12.5t5 12.5q25 0 87 -3t100 -3q37 0 101.5 3t90.5 3z" />
<glyph unicode="O" horiz-adv-x="1568" d="M750 -25q-191 0 -341 91t-229.5 242t-79.5 331q0 129 43 239t115 187t165.5 131.5t195 80.5t202.5 26q146 0 270 -55t205.5 -146.5t126.5 -208t45 -240.5q0 -140 -58 -266t-155 -216t-229 -143t-276 -53zM821 20q97 0 181 38.5t146.5 110t98 181.5t35.5 246 q0 189 -66 338t-190.5 234t-288.5 85q-214 0 -332 -144t-118 -398q0 -194 67 -351.5t189.5 -248.5t277.5 -91z" />
<glyph unicode="P" horiz-adv-x="1118" d="M410 174q0 -65 16.5 -94.5t63.5 -42t149 -12.5q5 0 5 -12.5t-5 -12.5q-41 0 -143.5 2t-165.5 2q-50 0 -133.5 -2t-114.5 -2q-6 0 -6 12.5t6 12.5q106 0 136 26t30 115v948q0 88 -30.5 114.5t-135.5 26.5q-6 0 -6 12.5t6 12.5q31 0 113.5 -3t132.5 -3q28 0 127 6t155 6 q92 0 167 -19t133 -58.5t91 -105t35 -153.5q1 -82 -25.5 -152t-71 -117t-103.5 -80.5t-122.5 -48.5t-127.5 -15q-60 0 -99 10q-5 1 -5 8t3 13t7 5q33 -8 73 -8q121 0 205 88.5t84 253.5q0 161 -82 252.5t-217 91.5q-48 0 -72.5 -4t-43 -19t-24 -42t-5.5 -76v-936z" />
<glyph unicode="Q" horiz-adv-x="1568" d="M1526 -340q4 1 7 -4.5t3.5 -10.5t-2.5 -7q-94 -23 -172 -23q-146 0 -307 95t-275 265h-30q-191 0 -341 91t-229.5 242t-79.5 331q0 129 43 239t115 187t165.5 131.5t195 80.5t202.5 26q146 0 270 -55t205.5 -146.5t126.5 -208t45 -240.5q0 -225 -139 -401.5t-356 -243.5 q84 -155 220 -254.5t259 -99.5q47 0 74 6zM287 711q0 -193 67 -350t189.5 -247.5t277.5 -90.5q97 0 181 38t146.5 109t98 180.5t35.5 245.5q0 189 -66 338t-190.5 234t-288.5 85q-214 0 -332 -144t-118 -398z" />
<glyph unicode="R" horiz-adv-x="1394" d="M1413 25q6 0 6 -12.5t-6 -12.5h-295q-49 0 -184 173.5t-326 481.5q-48 -10 -90 -10q-38 0 -100 4v-483q0 -90 29.5 -115.5t136.5 -25.5q6 0 6 -12.5t-6 -12.5q-30 0 -112.5 2t-135.5 2q-49 0 -133 -2t-115 -2q-6 0 -6 12.5t6 12.5q106 0 137 26t31 115v948 q0 88 -30.5 114.5t-135.5 26.5q-4 0 -4 12.5t4 12.5q31 0 114 -3t132 -3q38 0 127.5 6t126.5 6q174 0 268 -68t94 -190q0 -96 -57 -181.5t-150 -139.5q253 -384 398 -533t270 -149zM418 702q52 -8 121 -8q132 0 187.5 58.5t55.5 201.5q0 162 -61.5 229.5t-169.5 67.5 q-77 0 -105 -26.5t-28 -114.5v-408z" />
<glyph unicode="S" horiz-adv-x="1021" d="M317 1051q0 -35 9 -67t21 -56.5t37.5 -52t44 -44.5t54.5 -42t56.5 -37.5t62.5 -38.5q52 -31 77 -47.5t69 -48t67 -57.5t48.5 -62.5t36.5 -78t11 -89.5q0 -154 -116.5 -254.5t-311.5 -100.5q-78 0 -159.5 20.5t-141.5 55.5q-18 9 -18 39l-21 293q-1 6 4.5 8.5t12 1.5 t8.5 -6q16 -55 36.5 -103.5t52.5 -99.5t70 -87.5t91 -59.5t114 -23q45 0 83.5 11t72 35.5t53 69.5t19.5 106q0 55 -17.5 104t-40.5 82.5t-67 70.5t-75 58t-86 55q-9 5 -13 8q-44 27 -62.5 39t-56.5 39.5t-56 45t-44.5 47.5t-38.5 56.5t-21.5 62.5t-9.5 75q0 80 34.5 143.5 t92 102t127 58.5t143.5 20q137 0 248 -48q33 -14 33 -36l8 -256q0 -8 -10.5 -9.5t-13.5 7.5q-6 33 -18.5 68.5t-37 79.5t-57 78t-82.5 57.5t-109 23.5q-103 0 -158 -61t-55 -156z" />
<glyph unicode="T" horiz-adv-x="1304" d="M408 1241q-127 0 -198.5 -71t-107.5 -228q0 -3 -6 -4t-12 0.5t-6 5.5q9 65 20 191t11 190q0 9 11 9.5t11 -9.5q0 -45 111 -45q178 -6 413 -6q105 0 229 3t167 3q75 0 110 10t45 41q2 7 13.5 7t11.5 -7q-7 -60 -14 -196t-7 -191q0 -6 -11 -6t-11 6q-13 158 -81 227.5 t-202 69.5q-107 0 -136.5 -23t-29.5 -108v-944q0 -63 14 -91t52.5 -39t124.5 -11q4 0 4 -12.5t-4 -12.5q-34 0 -125 2t-150 2q-55 0 -146.5 -2t-125.5 -2q-6 0 -6 12.5t6 12.5q120 0 156 26t36 115v948q0 83 -30.5 105t-136.5 22z" />
<glyph unicode="U" horiz-adv-x="1433" d="M1169 1044q0 103 -45.5 157t-134.5 54q-6 0 -6 12.5t6 12.5q29 0 98 -3t111 -3q37 0 102 3t91 3q6 0 6 -12.5t-6 -12.5q-164 0 -164 -211v-579q0 -228 -134.5 -360t-357.5 -132q-229 0 -368.5 131t-139.5 353v657q0 88 -30.5 114.5t-135.5 26.5q-6 0 -6 12.5t6 12.5 q31 0 113.5 -3t132.5 -3q52 0 135.5 3t112.5 3q5 0 5 -12.5t-5 -12.5q-104 0 -135 -28t-31 -117v-582q0 -241 105.5 -364t296.5 -123q179 0 278.5 111.5t99.5 310.5v581z" />
<glyph unicode="V" horiz-adv-x="1357" d="M1368 1280q6 0 6 -12.5t-6 -12.5q-149 0 -221 -188l-418 -1065q-3 -8 -22.5 -8t-22.5 8l-514 1108q-36 77 -74 111t-94 34q-6 0 -6 12.5t6 12.5q22 0 72 -3t92 -3q90 0 183.5 3t115.5 3q5 0 5 -12.5t-5 -12.5q-86 0 -114.5 -36.5t5.5 -114.5l406 -883l336 856 q68 178 -140 178q-6 0 -6 12.5t6 12.5q32 0 102.5 -3t125.5 -3q40 0 94 3t88 3z" />
<glyph unicode="W" horiz-adv-x="1892" d="M1903 1280q6 0 6 -12.5t-6 -12.5q-150 0 -222 -188l-417 -1065q-3 -8 -22.5 -8t-22.5 8l-267 573l-223 -573q-3 -8 -22.5 -8t-22.5 8l-514 1108q-39 85 -73 115t-95 30q-6 0 -6 12.5t6 12.5q22 0 72 -3t92 -3q78 0 159 3t101 3q6 0 6 -12.5t-6 -12.5q-85 0 -103.5 -29.5 t21.5 -121.5l414 -887l166 420l-219 473q-35 76 -71 110.5t-87 34.5q-5 0 -5 12.5t5 12.5q22 0 68.5 -3t84.5 -3q63 0 124.5 3t74.5 3q6 0 6 -12.5t-6 -12.5q-22 0 -34.5 -2t-20.5 -8.5t-9 -15.5t4 -28t14 -40t26 -57l129 -279l100 252q36 94 25.5 136t-72.5 42 q-5 0 -5 12.5t5 12.5q16 0 50 -3t85 -3q37 0 87.5 3t82.5 3q6 0 6 -12.5t-6 -12.5q-67 0 -119 -44t-92 -144l-119 -301l256 -549l336 850q36 91 4.5 139.5t-129.5 48.5q-5 0 -5 12.5t5 12.5q30 0 97 -3t120 -3q40 0 94.5 3t88.5 3z" />
<glyph unicode="X" horiz-adv-x="1331" d="M1307 25q6 0 6 -12.5t-6 -12.5q-26 0 -94.5 2t-108.5 2q-62 0 -147.5 -2t-116.5 -2q-6 0 -6 12.5t6 12.5q66 0 84 16.5t-11 62.5l-301 461l-233 -332q-71 -100 -56 -154t113 -54q6 0 6 -12.5t-6 -12.5q-33 0 -106.5 2t-134.5 2q-36 0 -86.5 -2t-81.5 -2q-6 0 -6 12.5 t6 12.5q67 0 144 54t157 161l264 358l-330 504q-55 84 -106.5 118.5t-118.5 34.5q-5 0 -5 12.5t5 12.5q26 0 81.5 -3t80.5 -3q61 0 155.5 3t126.5 3q5 0 5 -12.5t-5 -12.5q-68 0 -86 -17t11 -64l290 -445l217 307q73 104 60.5 161.5t-109.5 57.5q-6 0 -6 12.5t6 12.5 q32 0 106 -3t134 -3q37 0 87.5 3t82.5 3q4 0 4 -12.5t-4 -12.5q-142 0 -309 -227l-246 -334l344 -524q52 -79 108 -112t136 -33z" />
<glyph unicode="Y" horiz-adv-x="1253" d="M1264 1280q4 0 4 -12.5t-4 -12.5q-69 0 -150 -62t-145 -165l-256 -403v-459q0 -90 29.5 -115.5t136.5 -25.5q6 0 6 -12.5t-6 -12.5q-30 0 -112.5 2t-135.5 2q-49 0 -133 -2t-115 -2q-6 0 -6 12.5t6 12.5q106 0 137 26t31 115v428l-326 485q-66 99 -116 137.5t-107 38.5 q-6 0 -6 12.5t6 12.5q22 0 69.5 -3t69.5 -3q60 0 166 3t137 3q6 0 6 -12.5t-6 -12.5q-71 0 -88.5 -28.5t17.5 -77.5l315 -471l227 362q63 100 47 157.5t-108 57.5q-6 0 -6 12.5t6 12.5q34 0 111.5 -3t140.5 -3q34 0 81.5 3t76.5 3z" />
<glyph unicode="Z" horiz-adv-x="1224" d="M115 27l780 1202q8 11 6.5 13.5t-14.5 2.5q-99 0 -162.5 -0.5t-133.5 -3t-110.5 -5.5t-86.5 -10t-71 -15t-54 -22.5t-44 -30.5t-33.5 -40t-30.5 -50t-26 -62q-2 -3 -8.5 -3t-11.5 2t-4 5l82 331q1 3 7.5 3t12 -2t4.5 -5q-6 -36 15.5 -46.5t101.5 -10.5h747 q9 0 14.5 -10.5t0.5 -16.5l-770 -1198q-5 -7 -6 -10.5t2.5 -4.5t11.5 -1h487q129 0 209 65t100 185q3 5 14 5t11 -5l-29 -273q0 -7 -5 -13.5t-13 -6.5q-305 4 -981 4q-9 0 -13 10t1 17z" />
<glyph unicode="[" horiz-adv-x="561" d="M166 -217v1681q0 14 3.5 17.5t16.5 3.5h297q6 0 6 -12.5t-6 -12.5q-107 0 -139.5 -28t-32.5 -117v-1385q0 -89 32.5 -117t139.5 -28q6 0 6 -12.5t-6 -12.5h-297q-13 0 -16.5 4t-3.5 19z" />
<glyph unicode="\" horiz-adv-x="706" d="M567 -336l-514 1804q-1 3 6.5 8.5t19.5 10t24.5 8t21 3.5t10.5 -3l518 -1806q2 -8 -40 -20t-46 -5z" />
<glyph unicode="]" horiz-adv-x="561" d="M395 -217q0 -15 -3 -19t-15 -4h-301q-4 0 -4 12.5t4 12.5q109 0 141.5 28t32.5 117v1385q0 89 -32.5 117t-141.5 28q-4 0 -4 12.5t4 12.5h301q12 0 15 -3.5t3 -17.5v-1681z" />
<glyph unicode="^" horiz-adv-x="802" d="M682 449q3 -6 -6 -11t-12 0l-263 328l-262 -328q-4 -4 -13 0.5t-7 10.5l260 509q1 10 21.5 10t23.5 -10z" />
<glyph unicode="_" horiz-adv-x="815" d="M70 -160q-6 0 -8 22t-0.5 44t6.5 22h677q9 0 9 -44t-9 -44h-675z" />
<glyph unicode="`" horiz-adv-x="561" d="M504 901q-237 104 -455 158q-20 4 26 27q69 33 115 38q11 1 15 -2q7 -4 122.5 -82.5t186.5 -117.5q4 -3 4.5 -8.5t-4 -10.5t-10.5 -2z" />
<glyph unicode="a" horiz-adv-x="980" d="M948 115q6 3 10 -1.5t4 -11.5t-6 -10l-217 -102q-12 -6 -16 -6q-30 0 -56.5 39.5t-33.5 99.5l-141 -72q-127 -65 -199 -65q-70 0 -112 34.5t-42 98.5q0 61 42 99t138 73l310 117v282q0 124 -33 182t-104 58q-77 0 -123 -62t-62 -149q-18 -90 -94 -90q-37 0 -60.5 22.5 t-23.5 55.5q1 55 73.5 119.5t176.5 107.5t190 43q96 0 152.5 -56t56.5 -169v-510q0 -150 84 -150q29 0 86 23zM494 90l135 64v18v203l-228 -90q-45 -18 -67.5 -44.5t-22.5 -70.5q0 -47 26 -74.5t69 -27.5q40 0 88 22z" />
<glyph unicode="b" horiz-adv-x="1038" d="M641 530q317 -22 317 -239q0 -133 -109 -216t-280 -83q-33 0 -134.5 6t-145.5 6q-43 0 -117.5 -2t-101.5 -2q-6 0 -6 12.5t6 12.5q94 0 120.5 26t26.5 115v627q0 88 -26.5 114.5t-118.5 26.5q-6 0 -6 12t6 12q27 0 100.5 -3t116.5 -3q37 0 120.5 6.5t127.5 6.5 q149 0 232 -52.5t83 -150.5q0 -78 -55.5 -139t-155.5 -93zM485 938q-71 0 -94.5 -28.5t-23.5 -121.5v-258h94q63 0 103.5 7t72.5 26.5t46.5 57t14.5 96.5q0 114 -54 167.5t-159 53.5zM535 25q262 0 262 219q0 118 -81.5 184t-254.5 66q-63 0 -94 -2v-326q0 -77 34 -109 t134 -32z" />
<glyph unicode="c" horiz-adv-x="1097" d="M635 983q78 0 167 -15.5t144 -43.5q14 -6 18.5 -12.5t6.5 -22.5l16 -211q0 -6 -10.5 -7.5t-13.5 5.5q-99 272 -365 272q-157 0 -253.5 -121.5t-96.5 -312.5q0 -94 24.5 -182t72 -161.5t126.5 -118t178 -44.5q241 0 332 279q3 7 14 5.5t11 -7.5l-23 -217q-1 -17 -6 -23 t-23 -14q-163 -56 -329 -56q-119 0 -216 32.5t-158.5 84.5t-103.5 120.5t-59.5 136t-17.5 134.5q0 140 73.5 255t203 180t288.5 65z" />
<glyph unicode="d" horiz-adv-x="1163" d="M563 -8q-37 0 -132 6t-140 6q-44 0 -119 -2t-102 -2q-6 0 -6 12.5t6 12.5q94 0 120.5 26t26.5 115v627q0 88 -26.5 114.5t-118.5 26.5q-6 0 -6 12t6 12q27 0 101 -3t118 -3q41 0 125 5.5t123 5.5q260 0 407.5 -134t147.5 -344q0 -214 -149 -353.5t-382 -139.5zM539 25 q179 0 279 114t100 324q0 77 -14 145t-45 128t-76 103t-112 68t-149 25q-86 0 -120.5 -31.5t-34.5 -112.5v-600q0 -88 35 -125.5t137 -37.5z" />
<glyph unicode="e" horiz-adv-x="909" d="M842 111q6 3 13 -6t1 -15q-143 -115 -315 -115q-114 0 -206 41.5t-148.5 110.5t-86.5 155t-30 179q0 143 67 261.5t185.5 187.5t263.5 69q127 0 199.5 -65t72.5 -171q0 -45 -24 -45l-586 -4q-17 -77 -17 -155q0 -217 105 -354.5t287 -137.5q129 0 219 64zM516 934 q-94 0 -160.5 -54t-97.5 -153l432 8q1 94 -47 146.5t-127 52.5z" />
<glyph unicode="f" horiz-adv-x="870" d="M807 942q0 -36 3 -119t3 -106q0 -6 -11.5 -6t-13.5 6q-22 103 -83 159t-154 56h-43q-91 0 -117 -26t-26 -115v-304q104 1 182 5.5t113.5 9t39.5 4.5q13 0 13 -43q0 -49 -13 -49q-3 0 -38.5 5.5t-114 12t-182.5 8.5v-266q0 -94 35 -121.5t161 -27.5q5 0 5 -12.5t-5 -12.5 q-36 0 -127 2t-145 2q-42 0 -115 -2t-104 -2q-6 0 -6 12.5t6 12.5q92 0 118.5 26t26.5 115v627q0 88 -26.5 114.5t-118.5 26.5q-6 0 -6 12t6 12h718q19 0 19 -16z" />
<glyph unicode="g" horiz-adv-x="1136" d="M604 -25q-124 0 -227 41.5t-169 110.5t-102 156t-36 180q0 242 159 381t430 139q194 0 302 -63q9 -5 13 -12.5t5 -12.5t2 -21l16 -192q0 -5 -10.5 -7t-13.5 5q-106 268 -363 268q-168 0 -268 -121.5t-100 -337.5q0 -213 111 -346t298 -133q74 0 114 8.5t65.5 38t32.5 74 t7 127.5q0 41 -4 60t-23 32.5t-49 16t-92 2.5q-8 0 -11 8t-0.5 16t9.5 8q182 -13 379 -4q8 0 9 -14t-9 -14q-29 1 -42.5 -1.5t-22 -19t-9.5 -38t-1 -72.5q0 -81 5 -129.5t5 -51.5q0 -4 -1 -7l-1.5 -4.5t-3.5 -3.5t-4.5 -2.5t-6.5 -3t-8 -3.5q-136 -58 -385 -58z" />
<glyph unicode="h" horiz-adv-x="1280" d="M1212 25q4 0 4 -12.5t-4 -12.5q-28 0 -103.5 2t-119.5 2q-46 0 -120 -2t-101 -2q-4 0 -4 12.5t4 12.5q93 0 119 25.5t26 115.5v297h-546v-297q0 -90 26 -115.5t119 -25.5q6 0 6 -12.5t-6 -12.5q-27 0 -101 2t-120 2q-44 0 -119 -2t-102 -2q-6 0 -6 12.5t6 12.5 q94 0 120.5 26t26.5 115v627q0 88 -26.5 114.5t-118.5 26.5q-6 0 -6 12t6 12q27 0 101 -3t118 -3q47 0 121.5 3t99.5 3q6 0 6 -12t-6 -12q-91 0 -118 -28.5t-27 -117.5v-282h546v282q0 90 -26.5 118t-118.5 28q-4 0 -4 12t4 12q27 0 101 -3t120 -3q44 0 119.5 3t103.5 3 q4 0 4 -12t-4 -12q-95 0 -122 -26.5t-27 -114.5v-627q0 -90 27 -115.5t122 -25.5z" />
<glyph unicode="i" horiz-adv-x="608" d="M381 166q0 -90 26 -115.5t119 -25.5q6 0 6 -12.5t-6 -12.5q-27 0 -101.5 2t-121.5 2q-44 0 -119.5 -2t-103.5 -2q-4 0 -4 12.5t4 12.5q95 0 122 25.5t27 115.5v627q0 88 -27 114.5t-122 26.5q-4 0 -4 12t4 12q28 0 103.5 -3t119.5 -3q48 0 123 3t100 3q6 0 6 -12t-6 -12 q-92 0 -118.5 -28t-26.5 -118v-622z" />
<glyph unicode="j" horiz-adv-x="550" d="M215 45v748q0 88 -24.5 114.5t-110.5 26.5q-6 0 -6 12t6 12q26 0 97.5 -3t113.5 -3q46 0 114.5 3t92.5 3q6 0 6 -12t-6 -12q-83 0 -108 -28.5t-25 -117.5v-647q0 -226 -63 -334t-236 -178q-3 -1 -7 4t-4.5 10t2.5 7q75 43 116.5 145.5t41.5 249.5z" />
<glyph unicode="k" horiz-adv-x="1116" d="M1116 25q6 0 6 -12.5t-6 -12.5h-233q-60 0 -69 3q-16 6 -40 41q-81 124 -123 181q-26 35 -55 72l-156 199l-73 -72v-258q0 -90 26 -115.5t119 -25.5q6 0 6 -12.5t-6 -12.5q-27 0 -101 2t-120 2q-44 0 -119 -2t-102 -2q-6 0 -6 12.5t6 12.5q94 0 120.5 26t26.5 115v627 q0 88 -26.5 114.5t-118.5 26.5q-6 0 -6 12t6 12q27 0 101 -3t118 -3q47 0 121.5 3t99.5 3q6 0 6 -12t-6 -12q-91 0 -118 -28.5t-27 -117.5v-303l299 299q41 41 61 67.5t22.5 46t-18.5 28t-67 8.5q-4 0 -4 12t4 12q27 0 91.5 -3t125.5 -3q64 0 124.5 3t67.5 3q6 0 6 -12 t-6 -12q-72 0 -176 -45t-186 -125l-166 -164l151 -194q77 -100 116 -149.5t83.5 -101t65.5 -70.5t50.5 -36.5t50.5 -20.5t54 -3z" />
<glyph unicode="l" horiz-adv-x="952" d="M360 791v-617q0 -84 27.5 -110.5t120.5 -26.5h98q111 0 185 69.5t106 190.5q0 4 5.5 5t11.5 -1t6 -6q-15 -131 -15 -264q0 -18 -6.5 -24.5t-24.5 -6.5h-804q-6 0 -6 12.5t6 12.5q89 0 114 25.5t25 115.5v627q0 89 -25.5 115t-113.5 26q-6 0 -6 12t6 12q27 0 101 -3 t118 -3q46 0 120.5 3t100.5 3q4 0 4 -12t-4 -12q-95 0 -122.5 -27t-27.5 -116z" />
<glyph unicode="m" horiz-adv-x="1839" d="M1804 25q4 0 4 -12.5t-4 -12.5q-26 0 -100.5 2t-122.5 2q-44 0 -117 -2t-100 -2q-4 0 -4 12.5t4 12.5q92 0 119.5 26t27.5 115v438q0 320 -211 320q-163 0 -294 -170q8 -36 8 -88v-500q0 -90 26 -115.5t119 -25.5q5 0 5 -12.5t-5 -12.5q-26 0 -99.5 2t-121.5 2 q-45 0 -118.5 -2t-98.5 -2q-6 0 -6 12.5t6 12.5q91 0 118 26t27 115v438q0 320 -209 320q-161 0 -290 -164v-594q0 -90 26 -115.5t119 -25.5q6 0 6 -12.5t-6 -12.5q-25 0 -99 2t-122 2q-45 0 -118.5 -2t-98.5 -2q-6 0 -6 12.5t6 12.5q91 0 117 26t26 115v627q0 88 -27 114.5 t-120 26.5q-6 0 -6 12t6 12q27 0 81.5 -1t84.5 -1q21 0 50 1t42 1q25 0 32 -6.5t7 -31.5v-115q165 180 352 180q108 0 179 -50.5t99 -146.5q169 197 367 197q139 0 216 -82t77 -237v-500q0 -90 26 -115.5t121 -25.5z" />
<glyph unicode="n" horiz-adv-x="1220" d="M1184 25q6 0 6 -12.5t-6 -12.5q-22 0 -85.5 2t-101.5 2q-44 0 -114.5 -2t-94.5 -2q-4 0 -4 12.5t4 12.5q87 0 112.5 28t25.5 117v408q0 102 -18.5 172t-53.5 107t-77 52t-99 15q-88 0 -164.5 -39t-155.5 -131v-584q0 -89 24.5 -117t109.5 -28q4 0 4 -12.5t-4 -12.5 q-26 0 -98.5 2t-114.5 2q-40 0 -111.5 -2t-97.5 -2q-6 0 -6 12.5t6 12.5q87 0 113 26t26 115v627q0 88 -24.5 114.5t-110.5 26.5q-6 0 -6 12t6 12q22 0 65.5 -1t67.5 -1q25 0 60.5 1t51.5 1q25 0 32 -6.5t7 -31.5v-117q171 180 383 180q70 0 128.5 -18.5t105.5 -57.5 t73.5 -107.5t26.5 -160.5v-473q0 -89 20 -115t89 -26z" />
<glyph unicode="o" d="M563 -25q-145 0 -259 69.5t-174 182.5t-60 248q0 120 50.5 219.5t131 160.5t176.5 94.5t193 33.5q109 0 202 -42.5t153 -111.5t94 -156.5t34 -178.5q0 -139 -72 -258.5t-197 -190t-272 -70.5zM614 18q145 0 232.5 113.5t87.5 312.5q0 136 -43.5 247t-131.5 179t-206 68 q-150 0 -231.5 -106.5t-81.5 -301.5q0 -143 45 -259t131 -184.5t198 -68.5z" />
<glyph unicode="p" horiz-adv-x="952" d="M365 174q0 -65 14.5 -94.5t55 -42t126.5 -12.5q5 0 5 -12.5t-5 -12.5q-36 0 -126 2t-144 2q-44 0 -119 -2t-102 -2q-6 0 -6 12.5t6 12.5q91 0 118 26t27 115v627q0 88 -27 114.5t-118 26.5q-6 0 -6 12t6 12q27 0 101 -3t118 -3q34 0 118 6.5t123 6.5q336 0 347 -242 q2 -60 -17.5 -111t-53.5 -86t-79 -60t-94 -36.5t-98 -11.5q-48 0 -78 6q-7 3 -5 15.5t13 11.5q40 -5 53 -5q81 0 135 59t54 173q0 129 -59.5 192.5t-164.5 63.5q-46 0 -68.5 -8t-36 -40t-13.5 -98v-614z" />
<glyph unicode="q" d="M1233 -322q4 1 7 -4t3.5 -9.5t-2.5 -6.5q-86 -25 -168 -25q-130 0 -263.5 89.5t-229.5 252.5h-17q-144 0 -258 69.5t-174.5 183t-60.5 247.5q0 120 50.5 219.5t131 160.5t176.5 94.5t193 33.5q109 0 202 -42.5t153 -111.5t94 -156.5t34 -178.5q0 -161 -97.5 -294.5 t-252.5 -189.5q69 -149 184.5 -243.5t226.5 -94.5q41 0 68 6zM240 532q0 -144 45 -260t131.5 -185t199.5 -69q143 0 230.5 113t87.5 311q0 209 -103 351.5t-278 142.5q-151 0 -232 -105t-81 -299z" />
<glyph unicode="r" horiz-adv-x="1101" d="M1126 25q6 0 6 -12.5t-6 -12.5h-270q-34 0 -124.5 124t-211.5 337q-44 -6 -86 -6t-65 2v-291q0 -90 25 -115.5t118 -25.5q6 0 6 -12.5t-6 -12.5q-27 0 -100.5 2t-120.5 2q-43 0 -118.5 -2t-102.5 -2q-6 0 -6 12.5t6 12.5q92 0 118.5 26t26.5 115v627q0 88 -26.5 114.5 t-116.5 26.5q-6 0 -6 12t6 12q27 0 101.5 -3t117.5 -3q37 0 124.5 6.5t123.5 6.5q141 0 214.5 -51t73.5 -148q0 -82 -48.5 -151t-131.5 -111q166 -274 268 -376.5t211 -102.5zM369 496q46 -4 80 -4q123 0 171 55t48 164q0 221 -183 221q-73 0 -94.5 -31t-21.5 -113v-292z " />
<glyph unicode="s" horiz-adv-x="823" d="M258 797q0 -24 4.5 -45t16.5 -40.5t22 -34t31 -31.5t34 -27t41.5 -26.5t41.5 -23.5t45 -24q34 -18 48.5 -25.5t45 -25t45 -29t38 -30.5t35 -36.5t25 -40t18.5 -48t5 -54.5q0 -120 -97.5 -200.5t-255.5 -80.5q-77 0 -148.5 19.5t-115.5 52.5q-18 12 -18 41l-19 211 q0 9 11 10.5t14 -4.5q40 -119 125.5 -206t189.5 -87q68 0 117 40t49 124q0 41 -15 77.5t-34.5 61.5t-56.5 53t-63 43.5t-72 41.5q-40 22 -62 34.5t-55.5 34.5t-52.5 41t-39 45.5t-28.5 57t-8.5 65.5q0 116 95 184t230 68q117 0 220 -47q18 -7 23 -14.5t7 -22.5l8 -184 q0 -8 -10 -9.5t-12 5.5q-6 25 -20.5 54.5t-39 62t-54.5 58.5t-71.5 43t-86.5 17q-73 0 -111.5 -41t-38.5 -108z" />
<glyph unicode="t" horiz-adv-x="772" d="M729 104q7 4 12.5 -4.5t-0.5 -13.5q-84 -61 -148 -86t-138 -25q-55 0 -101.5 14t-87.5 45t-64.5 88t-23.5 136v537q0 67 -19 84.5t-87 17.5q-8 0 -8 15.5t8 15.5q90 0 152 44t73 113q0 4 7.5 5t15.5 -1t8 -6v-149q117 2 358 18q5 0 9.5 -13.5t4.5 -31.5q0 -13 -3.5 -27 t-8.5 -22.5t-10 -7.5q-152 38 -350 41v-574q0 -268 209 -268q110 0 192 55z" />
<glyph unicode="u" horiz-adv-x="1249" d="M1182 958q4 0 4 -12t-4 -12q-88 0 -115 -26.5t-27 -114.5v-627q0 -89 25 -115t111 -26q6 0 6 -12.5t-6 -12.5q-22 0 -66 1t-68 1q-25 0 -60.5 -1t-51.5 -1q-25 0 -31 6.5t-6 32.5v119q-172 -183 -383 -183q-93 0 -168 32t-121.5 100.5t-46.5 164.5v521q0 88 -20 114.5 t-88 26.5q-6 0 -6 12t6 12q22 0 85 -3t101 -3q45 0 115.5 3t93.5 3q6 0 6 -12t-6 -12q-85 0 -111 -28.5t-26 -117.5v-454q0 -299 249 -299q86 0 163.5 40t156.5 132v581q0 90 -24.5 118t-108.5 28q-6 0 -6 12t6 12q26 0 98 -3t115 -3q39 0 111 3t98 3z" />
<glyph unicode="v" horiz-adv-x="1046" d="M1055 958q6 0 6 -12t-6 -12q-60 0 -104 -38t-77 -122l-303 -772q-3 -8 -22.5 -8t-22.5 8l-374 786q-41 86 -71.5 116t-84.5 30q-4 0 -4 12t4 12q28 0 88 -3t104 -3q48 0 116.5 3t94.5 3q6 0 6 -12t-6 -12q-148 0 -88 -125l293 -614l223 589q30 74 2 112t-122 38 q-5 0 -5 12t5 12q24 0 82.5 -3t107.5 -3q35 0 82.5 3t75.5 3z" />
<glyph unicode="w" horiz-adv-x="1488" d="M1499 958q6 0 6 -12t-6 -12q-67 0 -113 -40.5t-86 -141.5l-294 -750q-3 -8 -22.5 -8t-22.5 8l-207 436l-181 -436q-3 -8 -22.5 -8t-22.5 8l-376 786q-41 86 -71.5 116t-84.5 30q-4 0 -4 12t4 12q27 0 84 -3t82 -3q44 0 100.5 3t69.5 3q6 0 6 -12t-6 -12q-88 0 -25 -125 l303 -621l119 299l-143 301q-44 90 -68 118t-65 28q-6 0 -6 12t6 12q19 0 70.5 -3t80.5 -3q26 0 73 3t62 3q5 0 5 -12t-5 -12q-39 0 -42 -17q-2 -17 40 -105q1 -1 2 -3l82 -168l53 143q29 86 23.5 118t-45.5 32q-6 0 -6 12t6 12q12 0 46.5 -3t62.5 -3q34 0 74 3t69 3 q6 0 6 -12t-6 -12q-71 0 -111.5 -33t-79.5 -127l-71 -176l196 -405l213 567q33 86 18 130t-73 44q-6 0 -6 12t6 12q20 0 61 -3t72 -3q37 0 88.5 3t81.5 3z" />
<glyph unicode="x" horiz-adv-x="1054" d="M1036 25q6 0 6 -12.5t-6 -12.5q-21 0 -91 2t-89 2q-49 0 -116.5 -2t-90.5 -2q-6 0 -6 12.5t6 12.5q65 0 73.5 14t-26.5 65l-207 310l-161 -238q-106 -151 67 -151q6 0 6 -12.5t-6 -12.5q-28 0 -97 2t-120 2q-31 0 -74.5 -2t-70.5 -2q-5 0 -5 12.5t5 12.5q125 0 246 163 l188 261l-227 339q-52 78 -107.5 112t-101.5 34q-5 0 -5 12t5 12q21 0 64 -3t63 -3q48 0 143.5 3t118.5 3q4 0 4 -12t-4 -12q-66 0 -74.5 -15t25.5 -67l192 -285l144 215q51 70 40 111t-96 41q-6 0 -6 12t6 12q28 0 91.5 -3t113.5 -3q33 0 76.5 3t68.5 3q6 0 6 -12t-6 -12 q-126 0 -247 -164l-168 -238l243 -362q52 -78 107 -111.5t100 -33.5z" />
<glyph unicode="y" horiz-adv-x="1046" d="M1055 958q6 0 6 -12t-6 -12q-121 0 -181 -160l-303 -772q-45 -124 -117.5 -221.5t-152.5 -136.5q-8 -5 -31 11t-37 42q-14 30 -16 60.5t10 33.5q108 20 182.5 64.5t120.5 140.5l-378 792q-41 86 -71.5 116t-84.5 30q-4 0 -4 12t4 12q28 0 88 -3t104 -3q46 0 114.5 3 t94.5 3q6 0 6 -12t-6 -12q-148 0 -88 -125l297 -612l221 587q30 74 2 112t-122 38q-5 0 -5 12t5 12q24 0 82.5 -3t107.5 -3q35 0 82.5 3t75.5 3z" />
<glyph unicode="z" horiz-adv-x="925" d="M82 27l557 886q4 8 5 11t-2.5 4.5t-12.5 1.5q-98 0 -162.5 -3t-118 -13.5t-85 -24t-60.5 -41.5t-47.5 -59t-42.5 -82q-3 -3 -9 -2.5t-11.5 3t-4.5 5.5l78 307q2 7 16 2q8 -2 6 -6q-5 -36 17.5 -47t101.5 -11h500q8 0 13 -9.5t1 -16.5l-553 -881q-6 -11 -3.5 -14.5 t14.5 -3.5h251q135 0 200.5 52.5t105.5 190.5q2 5 13 4.5t11 -6.5l-24 -258q0 -7 -5.5 -13.5t-13.5 -6.5l-723 4q-9 0 -13 10t1 17z" />
<glyph unicode="{" horiz-adv-x="591" d="M66 610q-6 0 -6 13.5t6 13.5q38 5 66 34.5t44 70.5t25 102t11.5 115t2.5 124q0 134 11 209t46.5 120.5t89 59t150.5 13.5q8 0 8 -12.5t-8 -12.5q-67 0 -103 -56t-38 -161q-3 -135 -5 -194t-11 -137.5t-21.5 -109t-39 -70.5t-62 -61.5t-91.5 -45.5q56 -25 92 -47.5t62 -64 t39 -72.5t21 -110t10.5 -137.5t5.5 -191.5q2 -105 38 -161t103 -56q8 0 8 -12.5t-8 -12.5q-98 0 -152 14t-89 60.5t-45.5 121t-10.5 208.5q0 71 -2.5 125.5t-11.5 115.5t-25 101.5t-44 69.5t-66 34z" />
<glyph unicode="|" horiz-adv-x="344" d="M133 -293v1575q0 14 42 14t42 -14v-1575q0 -13 -42 -13t-42 13z" />
<glyph unicode="}" horiz-adv-x="579" d="M514 610q-38 -5 -66 -34t-43.5 -69.5t-24 -101.5t-11 -115t-2.5 -126q0 -89 -4.5 -149t-18 -107.5t-33.5 -74t-55.5 -44t-79 -23.5t-108.5 -6q-8 0 -8 12.5t8 12.5q67 0 103 56t38 161q2 131 4.5 191t10.5 138t21 110t39 73t62 63.5t92 47.5q-42 18 -72 34t-54.5 41.5 t-39.5 44.5t-27 61.5t-17.5 72t-10 97.5t-5.5 117t-3 150q-2 105 -38 161t-103 56q-8 0 -8 12.5t8 12.5q64 0 107 -5.5t78.5 -22.5t55.5 -43.5t34 -73.5t19 -107.5t5 -149.5q0 -71 2.5 -124.5t11 -115t24 -102t43.5 -70t66 -34.5q6 0 6 -13.5t-6 -13.5z" />
<glyph unicode="~" horiz-adv-x="919" d="M653 502q40 0 72.5 14t45 25.5t38.5 38.5q4 6 12 -5q3 -6 2 -10q-81 -105 -128.5 -139.5t-106.5 -34.5q-58 0 -159.5 38t-162.5 38q-20 0 -37 -3t-27.5 -6.5t-24 -13.5t-19.5 -15t-22 -20t-23 -22q-3 -3 -10.5 3.5t-4.5 10.5q119 174 238 174q43 0 148.5 -36.5 t168.5 -36.5z" />
<glyph unicode="&#xa1;" horiz-adv-x="516" d="M260 748q47 0 73.5 -27t26.5 -74q0 -43 -26.5 -68.5t-73.5 -25.5q-45 0 -71.5 25.5t-26.5 68.5q0 47 26 74t72 27zM369 -541q1 -6 -16 -11t-43 -8t-52 -3q-24 0 -50 3t-44 8t-17 11q27 122 47.5 296t28.5 282.5t19 300.5q0 8 21.5 8t21.5 -8q27 -605 84 -879z" />
<glyph unicode="&#xa2;" horiz-adv-x="1097" d="M981 287q3 7 14 5.5t11 -7.5l-23 -217q-1 -17 -6 -23t-23 -14q-163 -56 -329 -56h-13v-184q0 -13 -24.5 -13t-24.5 13v186q-106 8 -192 44.5t-140.5 87.5t-92 116.5t-53 129.5t-15.5 128q0 196 139 335t354 161v170q0 15 24.5 15t24.5 -15v-166h23q78 0 167 -15.5 t144 -43.5q14 -6 18.5 -12.5t6.5 -22.5l16 -211q0 -6 -10.5 -7.5t-13.5 5.5q-97 266 -351 272v-938q12 -2 37 -2q241 0 332 279zM248 514q0 -112 32.5 -213.5t105.5 -181t177 -101.5v928q-142 -13 -228.5 -133t-86.5 -299z" />
<glyph unicode="&#xa3;" horiz-adv-x="884" d="M754 256q0 4 6 5t12 -1t6 -6q-18 -103 -18 -223q0 -17 -7 -24t-24 -7h-676q-6 0 -6 12t6 13q107 26 143.5 74.5t34.5 129.5q-2 107 -36 217h-93q-15 0 -15 25t15 25h76q-35 111 -35 182q0 79 30 139.5t81.5 95.5t114.5 52.5t135 17.5q100 0 184 -31q30 -12 33 -39 l14 -208q0 -9 -10.5 -9t-13.5 9q-78 243 -238 243q-65 0 -107 -31.5t-57.5 -75t-15.5 -98.5q0 -42 9 -91t16 -72t26 -84h217q13 0 13 -25t-13 -25h-205q21 -79 21 -143q0 -78 -26.5 -127t-74.5 -86h238q130 0 173.5 30t66.5 136z" />
<glyph unicode="&#xa4;" horiz-adv-x="847" d="M745 133l-65 -61l-100 110q-79 -49 -179 -49q-85 0 -147 41l-90 -102l-55 53l90 94q-74 83 -74 195q0 111 78 182l-103 102l64 60l104 -113q77 41 164 41q88 0 158 -45l102 109l51 -52l-100 -100q72 -78 72 -186q0 -106 -70 -179zM440 172q67 0 106.5 51.5t39.5 145.5 q0 112 -54 195t-147 83q-63 0 -100 -48.5t-37 -141.5q0 -70 19 -132.5t64 -107.5t109 -45z" />
<glyph unicode="&#xa5;" horiz-adv-x="997" d="M983 958q5 0 5 -12t-5 -12q-65 0 -127.5 -47.5t-114.5 -136.5l-161 -277v-37h202q14 0 14 -23.5t-14 -23.5h-565q-13 0 -13 23.5t13 23.5h209v4l-227 348q-54 80 -98 113t-101 33q-4 0 -4 12t4 12q20 0 71 -3t70 -3q53 0 152.5 3t126.5 3q4 0 4 -12t-4 -12 q-136 0 -74 -96l213 -326l135 240q46 80 30 131t-87 51q-6 0 -6 12t6 12q32 0 99.5 -3t123.5 -3q28 0 65 3t58 3zM782 305q14 0 14 -22.5t-14 -22.5h-202v-94q0 -90 29.5 -115.5t138.5 -25.5q4 0 4 -12.5t-4 -12.5q-32 0 -113.5 2t-132.5 2q-46 0 -130 -2t-116 -2 q-6 0 -6 12.5t6 12.5q107 0 138.5 26t31.5 115v94h-209q-13 0 -13 22.5t13 22.5h565z" />
<glyph unicode="&#xa6;" horiz-adv-x="344" d="M133 631v651q0 14 42 14t42 -14v-651q0 -15 -42 -15t-42 15zM133 -293v629q0 14 42 14t42 -14v-629q0 -13 -42 -13t-42 13z" />
<glyph unicode="&#xa7;" horiz-adv-x="933" d="M680 135q82 -79 82 -180q0 -88 -48.5 -151t-119.5 -90t-154 -27q-104 0 -180 37q-20 16 -20 34l-17 213q0 5 11.5 5t11.5 -5q9 -31 32 -69.5t56.5 -77t81 -64.5t96.5 -26q57 0 92 36t35 111q0 53 -21 98t-54.5 77t-77 64t-89 59t-89 62.5t-77 73t-54.5 92t-21 119.5 q0 76 30 136.5t115 134.5q-80 80 -80 178q0 67 27 120t73 84.5t101.5 47.5t116.5 16q110 0 180 -39q20 -10 20 -33l19 -213q0 -6 -12.5 -6t-12.5 6q-9 31 -32 69.5t-56.5 77.5t-81 65t-96.5 26q-56 0 -90.5 -36t-34.5 -111q0 -60 26.5 -109.5t68.5 -85.5t93 -69.5 t102.5 -69.5t93.5 -77.5t68.5 -102t26.5 -134.5q0 -73 -29.5 -132.5t-111.5 -133.5zM270 608q0 -62 19 -115.5t48.5 -90t72.5 -72.5t81.5 -60t87 -56t78.5 -58q48 66 48 166q0 74 -25 134.5t-70.5 104.5t-90.5 76t-104.5 71t-92.5 68q-52 -65 -52 -168z" />
<glyph unicode="&#xa8;" horiz-adv-x="659" d="M152 969q-44 0 -69.5 25t-25.5 69q0 41 25.5 65.5t69.5 24.5t68 -24t24 -66q0 -44 -24 -69t-68 -25zM510 969q-44 0 -69 25t-25 69q0 42 25 66t69 24q43 0 67.5 -24.5t24.5 -65.5q0 -44 -24.5 -69t-67.5 -25z" />
<glyph unicode="&#xa9;" horiz-adv-x="1415" d="M727 -152q-91 0 -179.5 24t-168.5 74t-140.5 119.5t-96.5 169t-36 214.5q0 138 57.5 258.5t152 201.5t217.5 127.5t253 46.5q118 0 217 -38t165 -103t102.5 -151t36.5 -181q0 -92 -39 -178t-106 -150.5t-163.5 -103.5t-205.5 -39q-77 0 -140 19t-105 50t-70.5 73t-41 87 t-12.5 93q0 79 31.5 145.5t82 109t113 66t127.5 23.5q77 0 139.5 -30t63.5 -79q0 -31 -18.5 -50t-51.5 -19q-46 0 -75 61q-17 26 -28.5 39.5t-35.5 26t-55 12.5q-80 0 -113 -62.5t-33 -183.5q0 -69 16.5 -125.5t51 -102.5t94 -71.5t139.5 -25.5q65 0 124.5 22.5t108 65.5 t77 112.5t28.5 155.5q0 132 -63.5 242.5t-176 175.5t-249.5 65q-118 0 -214.5 -42.5t-158.5 -116t-95.5 -171t-33.5 -208.5q0 -138 49 -251t130 -184t181.5 -109t208.5 -38q115 0 204.5 20t191.5 78q4 2 8 -1t5 -7t-1 -6q-111 -87 -223.5 -118.5t-245.5 -31.5z" />
<glyph unicode="&#xaa;" horiz-adv-x="575" d="M557 834q6 3 11.5 -6.5t0.5 -12.5l-139 -65q-23 -9 -43.5 12.5t-26.5 66.5l-77 -41q-74 -40 -123 -40q-42 0 -68 22.5t-26 56.5t23.5 57t84.5 44l184 65v109q0 50 -7 82t-21 46t-27 18.5t-33 4.5q-35 0 -57.5 -29t-30.5 -75q-9 -59 -57 -59q-27 0 -43 15t-16 38 q0 33 46.5 68.5t107.5 57t106 21.5q57 0 92 -37t35 -110v-240q0 -69 22 -82t82 13zM283 815l75 39v4v113l-125 -49q-31 -13 -43 -25.5t-12 -36.5q0 -25 15 -40t40 -15q33 0 50 10zM535 647q9 0 9 -30.5t-9 -30.5h-459q-6 0 -8.5 15t-1 30.5t5.5 15.5h463z" />
<glyph unicode="&#xab;" horiz-adv-x="946" d="M487 154l-370 307q-9 7 -9 21.5t9 23.5l370 305q2 3 6.5 2t7.5 -5t1 -7l-232 -318l232 -317q2 -7 -7 -13q-6 -3 -8 1zM811 154l-371 307q-9 7 -9 21.5t9 23.5l371 305q2 3 6 2t7 -5t1 -7l-231 -318l231 -317q2 -6 -6 -13q-6 -4 -8 1z" />
<glyph unicode="&#xac;" horiz-adv-x="808" d="M745 623v-394q0 -6 -21.5 -8t-43 -0.5t-21.5 6.5v310h-589q-6 0 -8 21.5t-0.5 43t6.5 21.5h677z" />
<glyph unicode="&#xad;" horiz-adv-x="661" d="M66 334q-6 -2 -8.5 22t-1.5 49t5 27l535 94q6 1 8 -22.5t0 -48.5t-8 -27z" />
<glyph unicode="&#xae;" horiz-adv-x="1466" d="M772 1065q132 0 243.5 -44.5t186 -120.5t116.5 -178t42 -218q0 -176 -87 -323.5t-236 -232.5t-324 -85q-113 0 -220.5 40t-194 112.5t-139.5 185.5t-53 248q0 134 55.5 251t147.5 196t213 124t250 45zM778 -80q225 0 354.5 143t129.5 379q0 254 -158 414t-402 160 q-121 0 -216.5 -41.5t-155 -112.5t-90.5 -161.5t-31 -192.5q0 -135 48.5 -248t128.5 -186t181.5 -113.5t210.5 -40.5zM1118 154q3 -2 3 -9.5t-3 -7.5h-176q-20 0 -68 83t-129 249q-41 -8 -102 -8v-209q0 -60 16.5 -75t81.5 -15q3 0 3 -12.5t-3 -12.5q-18 0 -66.5 1t-80.5 1 q-26 0 -79 -1t-69 -1q-3 0 -3 12.5t3 12.5q61 0 77 15.5t16 74.5v442q0 56 -17 73t-76 17q-3 0 -3 12.5t3 12.5q20 0 71 -1t77 -1q25 0 84.5 3t81.5 3q194 0 194 -137q0 -120 -112 -178q92 -184 145.5 -254.5t130.5 -89.5zM643 498q106 -12 153.5 17t47.5 116 q0 155 -117 155q-27 0 -39.5 -2t-24.5 -11t-16 -29t-4 -56v-190z" />
<glyph unicode="&#xaf;" horiz-adv-x="706" d="M96 983q-15 0 -15 32t15 32h514q15 0 15 -32t-15 -32h-514z" />
<glyph unicode="&#xb0;" horiz-adv-x="679" d="M342 764q-126 0 -204.5 76t-78.5 190q0 108 79 184t204 76t202 -75.5t77 -188.5q0 -112 -77.5 -187t-201.5 -75zM356 788q43 0 71 15.5t42 48t18.5 69t4.5 91.5q0 128 -39.5 191t-122.5 63q-34 0 -59 -11.5t-40 -31t-23.5 -50.5t-11.5 -62.5t-3 -74.5q0 -57 7.5 -99 t25 -77t50 -53.5t80.5 -18.5z" />
<glyph unicode="&#xb1;" horiz-adv-x="815" d="M70 522q-6 0 -8 21.5t-0.5 43t6.5 21.5h297v295q0 9 43 9t43 -9v-295h294q9 0 9 -43t-9 -43h-294v-295q0 -6 -21.5 -8t-43 -0.5t-21.5 6.5v297h-295zM745 129q9 0 9 -39t-9 -39h-675q-6 0 -8 19.5t-0.5 39t6.5 19.5h677z" />
<glyph unicode="&#xb2;" horiz-adv-x="514" d="M57 838q14 54 46 109t66 99t66 88.5t53 94t21 98.5q0 58 -26 88.5t-70 30.5q-47 0 -83 -32.5t-50 -80.5q-2 -9 -16 -5q-10 3 -7 9q46 156 199 156q83 0 126.5 -41t43.5 -106q0 -45 -26 -92.5t-65.5 -89t-80 -81t-76 -82t-47.5 -77.5q-3 -6 4 -6q69 0 108.5 1t76 5t53 9.5 t30.5 18t20 27t11 39.5q0 3 8.5 3t8.5 -3l-2 -182q0 -11 -11 -11h-375q-5 0 -7 3.5t1 9.5z" />
<glyph unicode="&#xb3;" horiz-adv-x="514" d="M297 1174q71 -15 113.5 -54t42.5 -104q0 -80 -58 -142.5t-159 -62.5q-147 0 -191 141q-1 5 5 8.5t12.5 3t7.5 -5.5q15 -43 52 -72.5t93 -29.5q53 0 87 32.5t34 108.5q0 74 -41.5 116t-112.5 42q-7 0 -6.5 12.5t6.5 12.5q61 0 94 43t33 102q0 53 -27.5 85t-70.5 32 q-46 0 -82 -32.5t-47 -78.5q-1 -4 -7.5 -4.5t-12.5 2.5t-5 8q19 70 68 113t129 43q81 0 126.5 -42.5t45.5 -107.5q0 -56 -36 -101t-93 -68z" />
<glyph unicode="&#xb4;" horiz-adv-x="563" d="M57 901q-6 -3 -10 2t-3.5 10.5t3.5 8.5q71 39 186.5 117.5t122.5 82.5q15 10 99 -23q68 -26 63 -37l-6 -3q-218 -54 -455 -158z" />
<glyph unicode="&#xb6;" horiz-adv-x="1177" d="M659 0q-156 0 -281 61t-196 171t-71 247q0 202 156.5 340.5t391.5 138.5q23 0 93 -3t98 -3q47 0 126 3t109 3q5 0 5 -12t-5 -12q-88 0 -135 -43t-47 -123v-580q0 -78 47 -120.5t135 -42.5q5 0 5 -12.5t-5 -12.5q-30 0 -109 2t-126 2q-28 0 -98 -2t-93 -2zM731 94 q0 -27 19 -38t38 0.5t19 39.5v766q0 28 -19 39.5t-38 0t-19 -39.5v-768z" />
<glyph unicode="&#xb7;" horiz-adv-x="411" d="M209 383q-48 0 -74 26.5t-26 75.5q0 43 26.5 68t73.5 25q46 0 72 -25t26 -68q0 -49 -26 -75.5t-72 -26.5z" />
<glyph unicode="&#xb8;" horiz-adv-x="475" d="M240 -4q-21 -66 -21.5 -98t17 -52t67.5 -49q53 -31 83 -66t30 -91q0 -79 -57 -141t-169 -62q-63 0 -101 21.5t-38 64.5q0 26 20.5 45.5t49.5 19.5t46 -17t22 -37t22.5 -37t48.5 -17q62 0 62 67q0 55 -37.5 97t-134.5 96q-23 12 -26 21.5t9 37.5q24 57 76 199z" />
<glyph unicode="&#xb9;" horiz-adv-x="536" d="M90 825q-6 0 -6 12.5t6 12.5q93 0 114 21.5t21 119.5v242v16v53t-2.5 38.5t-5 29t-11 14.5t-17 6.5t-26.5 -5t-36 -11.5t-49 -22q-5 -2 -10 3t-5.5 10.5t3.5 8.5l249 117q7 3 14 -2.5t7 -11.5v-486q0 -99 19 -120t108 -21q6 0 6 -12.5t-6 -12.5q-23 0 -83 2t-97 2 q-39 0 -104.5 -2t-88.5 -2z" />
<glyph unicode="&#xba;" horiz-adv-x="653" d="M317 735q-118 0 -190 82.5t-72 202.5q0 66 26 119.5t68.5 85t91.5 48.5t99 17q118 0 189 -82t71 -194q0 -116 -84.5 -197.5t-198.5 -81.5zM348 766q65 0 103 56.5t38 154.5q0 118 -52.5 199t-133.5 81q-66 0 -101.5 -51.5t-35.5 -146.5q0 -118 52 -205.5t130 -87.5z M80 586q-6 0 -8 15t-0.5 30.5t6.5 15.5h497q9 0 9 -30.5t-9 -30.5h-495z" />
<glyph unicode="&#xbb;" horiz-adv-x="946" d="M135 811l371 -305q9 -9 9 -23.5t-9 -21.5l-371 -307q-4 -7 -11 1q-5 6 -3 11l231 315l-231 320q-2 5 6 11q6 4 8 -1zM459 811l370 -305q9 -9 9 -23.5t-9 -21.5l-370 -307q-4 -8 -13 2q-4 5 -2 10l232 315l-232 320q-1 2 2 6t7 5.5t6 -1.5z" />
<glyph unicode="&#xbc;" horiz-adv-x="1232" d="M465 655q5 0 5 -11t-5 -11q-24 0 -84.5 2t-97.5 2q-38 0 -104.5 -2t-90.5 -2q-4 0 -4 11t4 11q94 0 115.5 22.5t21.5 119.5v243q0 113 -7 135q-11 29 -50 19q-26 -6 -92 -35q-4 -2 -8.5 3.5t-5 11t3.5 8.5l247 116q8 3 15.5 -3t7.5 -11v-487q0 -98 19.5 -120t109.5 -22z M899 1286q4 10 39 -8q15 -8 14 -12l-571 -1266q-1 -4 -15 1t-27.5 12.5t-12.5 11.5zM1182 23q2 0 2 -12.5t-2 -12.5q-19 0 -61.5 1t-71.5 1q-34 0 -89 -1t-75 -1q-5 0 -5 12.5t5 12.5q69 0 86.5 10t17.5 51v104q-175 5 -256 5q-6 0 -9 5t1 11l326 453q6 5 23.5 2.5 t17.5 -9.5v-424q8 0 90 5q4 0 4 -28t-4 -28q-16 1 -45.5 2t-44.5 2v-100q0 -40 14 -50.5t76 -10.5zM805 223q41 0 101.5 1t82.5 1v287l-188 -283q-6 -6 4 -6z" />
<glyph unicode="&#xbd;" horiz-adv-x="1249" d="M88 633q-4 0 -4 11t4 11q94 0 115.5 22.5t21.5 119.5v243q0 113 -7 135q-11 29 -50 19q-26 -6 -92 -35q-4 -2 -8.5 3.5t-5 11t3.5 8.5l247 116q8 3 15.5 -3t7.5 -11v-487q0 -98 19.5 -120t109.5 -22q5 0 5 -11t-5 -11q-24 0 -84.5 2t-97.5 2q-38 0 -104.5 -2t-90.5 -2z M381 0q-1 -4 -15 1t-27.5 12.5t-12.5 11.5l573 1261q4 10 39 -8q15 -8 14 -12zM793 12q14 54 46 109t65.5 99t66 88.5t53 93.5t20.5 98q0 60 -26 90.5t-70 30.5q-49 0 -83.5 -32t-47.5 -81q-1 -5 -7.5 -5.5t-12 2.5t-4.5 7q46 156 198 156q83 0 125.5 -40.5t42.5 -105.5 q0 -46 -25.5 -93.5t-64.5 -89.5t-79 -81.5t-75.5 -82t-48.5 -77.5q-4 -8 6 -8q68 0 108.5 1t75.5 5.5t52 10.5t30.5 19.5t19.5 28t11 40.5q0 3 8.5 3t8.5 -3l-2 -185q0 -10 -10 -10h-373q-11 0 -8 12z" />
<glyph unicode="&#xbe;" horiz-adv-x="1210" d="M453 821q0 -80 -58 -140t-159 -60q-148 0 -191 141q-1 5 5 8t12.5 2t7.5 -6q15 -43 52.5 -72.5t92.5 -29.5q53 0 87 32.5t34 108.5q0 74 -41.5 116t-112.5 42q-8 0 -8 12t8 12q61 0 94 43.5t33 102.5q0 53 -27 83.5t-71 30.5q-48 0 -83 -30.5t-46 -75.5q-1 -5 -7.5 -6 t-12.5 2t-5 8q45 155 197 155q80 0 126 -42t46 -105q0 -58 -37.5 -104.5t-95.5 -67.5q71 -13 115.5 -53t44.5 -107zM877 1286q3 7 30 -4t25 -16l-574 -1266q-1 -4 -15 1t-27 12.5t-11 11.5zM1159 180q-15 1 -44 2t-44 2v-100q0 -40 13 -50.5t75 -10.5q1 0 1 -12.5t-1 -12.5 q-19 0 -60.5 1t-70.5 1q-36 0 -91 -1t-75 -1q-3 0 -3 12.5t3 12.5q71 0 89 10t18 51v104q-180 5 -258 5q-5 0 -8 5t2 11l325 453q4 5 22.5 2.5t18.5 -9.5v-424q15 1 45.5 2.5t42.5 2.5q6 0 6 -28t-6 -28zM782 223q85 0 187 4v289l-191 -287q-3 -6 4 -6z" />
<glyph unicode="&#xbf;" horiz-adv-x="669" d="M348 737q47 0 74 -26t27 -74q0 -43 -27.5 -68.5t-73.5 -25.5q-47 0 -72.5 25.5t-25.5 68.5q0 100 98 100zM342 -532q22 0 37.5 7.5t23.5 23t11 28t6 33.5t7 36t13.5 32t27.5 26.5t44 9.5q38 0 59 -23t21 -53q0 -63 -74 -107t-180 -44q-125 0 -209 63.5t-84 180.5 q0 28 4.5 53t16.5 48.5t21 39.5t30 38t31 32t36 33t33 30q68 65 97.5 123.5t29.5 130.5q0 38 -10 110q-2 4 4 7.5t12 3t8 -3.5q25 -53 39.5 -125t14.5 -121q0 -54 -20.5 -97t-49 -73.5t-57.5 -62.5t-49.5 -80.5t-20.5 -110.5q0 -84 35 -136t92 -52z" />
<glyph unicode="&#xc0;" horiz-adv-x="1445" d="M455 1548q-20 3 25 25q70 35 117 40q11 1 15 -1q26 -17 88.5 -61.5t114 -78t103.5 -61.5q5 -2 5 -8t-4 -11t-10 -3q-211 95 -454 159zM1442 25q9 0 9 -12.5t-9 -12.5q-38 0 -121 4t-121 4q-45 0 -114.5 -4t-108.5 -4q-9 0 -9 12.5t9 12.5q102 0 123.5 31.5t-23.5 125.5 l-227 473h-381l-168 -387q-51 -124 -6 -183.5t176 -59.5q9 0 9 -12.5t-9 -12.5q-37 0 -111.5 4t-130.5 4q-52 0 -120 -4t-109 -4q-9 0 -9 12.5t9 12.5q84 0 136 53t120 213l436 1005q2 4 15 4t14 -4l491 -1015q73 -149 121 -202.5t109 -53.5zM489 705h336l-176 368z" />
<glyph unicode="&#xc1;" horiz-adv-x="1445" d="M508 1389q-5 -2 -9 3t-3.5 10.5t4.5 8.5q70 37 184.5 115.5t124.5 85.5q14 9 100 -25q67 -27 62 -36q-1 -2 -6 -3q-247 -64 -457 -159zM1442 25q9 0 9 -12.5t-9 -12.5q-38 0 -121 4t-121 4q-45 0 -114.5 -4t-108.5 -4q-9 0 -9 12.5t9 12.5q102 0 123.5 31.5t-23.5 125.5 l-227 473h-381l-168 -387q-51 -124 -6 -183.5t176 -59.5q9 0 9 -12.5t-9 -12.5q-37 0 -111.5 4t-130.5 4q-52 0 -120 -4t-109 -4q-9 0 -9 12.5t9 12.5q84 0 136 53t120 213l436 1005q2 4 15 4t14 -4l491 -1015q73 -149 121 -202.5t109 -53.5zM489 705h336l-176 368z" />
<glyph unicode="&#xc2;" horiz-adv-x="1445" d="M485 1327q-6 -2 -13 6q-4 6 1 8l211 211q9 9 22.5 9t22.5 -9l211 -211q2 -2 1 -6t-5 -7t-8 -1l-221 105zM1442 25q9 0 9 -12.5t-9 -12.5q-38 0 -121 4t-121 4q-45 0 -114.5 -4t-108.5 -4q-9 0 -9 12.5t9 12.5q102 0 123.5 31.5t-23.5 125.5l-227 473h-381l-168 -387 q-51 -124 -6 -183.5t176 -59.5q9 0 9 -12.5t-9 -12.5q-37 0 -111.5 4t-130.5 4q-52 0 -120 -4t-109 -4q-9 0 -9 12.5t9 12.5q84 0 136 53t120 213l436 1005q2 4 15 4t14 -4l491 -1015q73 -149 121 -202.5t109 -53.5zM489 705h336l-176 368z" />
<glyph unicode="&#xc3;" horiz-adv-x="1445" d="M455 1427q-3 -2 -8 0.5t-7 7t0 7.5q90 139 176 139q26 0 113 -25.5t139 -25.5q34 0 56 13.5t47 41.5q2 2 6.5 0.5t7.5 -6t0 -8.5q-54 -83 -88.5 -111t-77.5 -28q-39 0 -125 25.5t-137 25.5q-16 0 -29 -2.5t-23.5 -9.5t-16 -11.5t-17 -16zM1442 25q9 0 9 -12.5t-9 -12.5 q-38 0 -121 4t-121 4q-45 0 -114.5 -4t-108.5 -4q-9 0 -9 12.5t9 12.5q102 0 123.5 31.5t-23.5 125.5l-227 473h-381l-168 -387q-51 -124 -6 -183.5t176 -59.5q9 0 9 -12.5t-9 -12.5q-37 0 -111.5 4t-130.5 4q-52 0 -120 -4t-109 -4q-9 0 -9 12.5t9 12.5q84 0 136 53 t120 213l436 1005q2 4 15 4t14 -4l491 -1015q73 -149 121 -202.5t109 -53.5zM489 705h336l-176 368z" />
<glyph unicode="&#xc4;" horiz-adv-x="1445" d="M528 1458q-43 0 -68.5 25t-25.5 69q0 41 25.5 64.5t68.5 23.5q44 0 68.5 -23.5t24.5 -64.5q0 -44 -24.5 -69t-68.5 -25zM887 1458q-44 0 -68 25t-24 69q0 42 24 65t68 23q43 0 67.5 -23.5t24.5 -64.5q0 -44 -24.5 -69t-67.5 -25zM1442 25q9 0 9 -12.5t-9 -12.5 q-38 0 -121 4t-121 4q-45 0 -114.5 -4t-108.5 -4q-9 0 -9 12.5t9 12.5q102 0 123.5 31.5t-23.5 125.5l-227 473h-381l-168 -387q-51 -124 -6 -183.5t176 -59.5q9 0 9 -12.5t-9 -12.5q-37 0 -111.5 4t-130.5 4q-52 0 -120 -4t-109 -4q-9 0 -9 12.5t9 12.5q84 0 136 53 t120 213l436 1005q2 4 15 4t14 -4l491 -1015q73 -149 121 -202.5t109 -53.5zM489 705h336l-176 368z" />
<glyph unicode="&#xc5;" horiz-adv-x="1445" d="M696 1358q-88 0 -140 48.5t-52 115.5q0 73 65.5 115t145.5 42q79 0 135.5 -47.5t56.5 -115.5q0 -71 -64.5 -114.5t-146.5 -43.5zM674 1655q-60 0 -60 -92q0 -69 31 -125t82 -56q70 0 70 99q0 70 -36.5 122t-86.5 52zM1442 25q9 0 9 -12.5t-9 -12.5q-38 0 -121 4t-121 4 q-45 0 -114.5 -4t-108.5 -4q-9 0 -9 12.5t9 12.5q102 0 123.5 31.5t-23.5 125.5l-227 473h-381l-168 -387q-51 -124 -6 -183.5t176 -59.5q9 0 9 -12.5t-9 -12.5q-37 0 -111.5 4t-130.5 4q-52 0 -120 -4t-109 -4q-9 0 -9 12.5t9 12.5q84 0 136 53t120 213l436 1005q2 4 15 4 t14 -4l491 -1015q73 -149 121 -202.5t109 -53.5zM489 705h336l-176 368z" />
<glyph unicode="&#xc6;" horiz-adv-x="1800" d="M1677 311q0 4 6.5 4.5t12.5 -2t6 -6.5q-21 -155 -21 -276q0 -18 -6 -24.5t-24 -6.5h-854q-6 0 -6 12.5t6 12.5q106 0 136 26t30 115v477h-340l-252 -377q-76 -118 -51.5 -179.5t149.5 -61.5q9 0 9 -12.5t-9 -12.5q-41 0 -121 4t-141 4q-48 0 -110 -4t-99 -4q-9 0 -9 12.5 t9 12.5q141 0 307 245l613 906q32 47 22 61q-12 17 -119 18h-37q-4 0 -4 12.5t4 12.5h830q20 0 20 -18l4 -261q0 -3 -5.5 -4.5t-11.5 -0.5t-7 5q-8 90 -77.5 161t-164.5 71h-102q-90 0 -121 -25.5t-31 -95.5v-422h213q105 0 154 36t49 112q0 4 11 4t11 -4q0 -46 -1 -98.5 t-1 -73.5q0 -32 3.5 -95t3.5 -100q0 -6 -12.5 -6t-12.5 6q0 88 -50.5 130t-160.5 42h-207v-469q0 -74 28.5 -100.5t110.5 -26.5h132q98 0 180.5 75.5t107.5 188.5zM653 690h310v461z" />
<glyph unicode="&#xc7;" horiz-adv-x="1370" d="M1257 344q1 7 13 5.5t12 -7.5l-29 -244q-5 -26 -9.5 -33.5t-22.5 -13.5q-188 -76 -385 -76h-37q-23 -83 -11.5 -110.5t78.5 -65.5q53 -33 83 -68t30 -89q0 -81 -55.5 -143t-167.5 -62q-63 0 -100.5 21.5t-37.5 64.5q0 26 20 45.5t46 19.5q30 0 47 -17t22.5 -37t23 -37 t48.5 -17q62 0 62 67q0 54 -37.5 95.5t-136.5 97.5q-23 12 -25 21t10 40q32 73 68 176q-137 9 -250.5 53t-189 110.5t-127.5 152t-75.5 175t-23.5 181.5q0 143 63 267t167 208t240 131.5t282 47.5q97 0 196.5 -17.5t157.5 -48.5q19 -9 25.5 -18t7.5 -31l23 -246q0 -6 -11 -8 t-12 4q-51 159 -172 238t-293 79q-225 0 -356 -150t-131 -400q0 -190 72.5 -349.5t199 -252.5t277.5 -93q294 0 421 334z" />
<glyph unicode="&#xc8;" horiz-adv-x="1110" d="M348 1548q-20 3 25 25q70 34 117 40q12 1 16 -1q31 -20 90 -62t111.5 -76.5t105.5 -62.5q6 -3 2.5 -14t-12.5 -8q-213 96 -455 159zM987 311q1 6 13 4.5t12 -6.5q-21 -164 -21 -278q0 -18 -6 -24.5t-24 -6.5h-873q-4 0 -4 12.5t4 12.5q106 0 136 26t30 115v948 q0 88 -30.5 114.5t-135.5 26.5q-4 0 -4 12.5t4 12.5h836q20 0 20 -18l4 -261q0 -6 -10.5 -6t-13.5 6q-15 113 -80 171.5t-174 58.5h-105q-88 0 -117.5 -25.5t-29.5 -99.5v-416h221q105 0 155 36.5t50 111.5q0 6 11 6t11 -6q0 -47 -1 -99t-1 -73q0 -30 3 -95t3 -102 q0 -5 -12 -5t-12 5q0 89 -51 130.5t-160 41.5h-217v-467q0 -76 26.5 -101.5t110.5 -25.5h133q116 0 193 68.5t106 195.5z" />
<glyph unicode="&#xc9;" horiz-adv-x="1110" d="M403 1389q-6 -2 -10.5 3t-4 10.5t4.5 8.5q70 37 184.5 115.5t124.5 85.5q14 9 100 -25q67 -27 62 -36q-1 -2 -6 -3q-242 -63 -455 -159zM987 311q1 6 13 4.5t12 -6.5q-21 -164 -21 -278q0 -18 -6 -24.5t-24 -6.5h-873q-4 0 -4 12.5t4 12.5q106 0 136 26t30 115v948 q0 88 -30.5 114.5t-135.5 26.5q-4 0 -4 12.5t4 12.5h836q20 0 20 -18l4 -261q0 -6 -10.5 -6t-13.5 6q-15 113 -80 171.5t-174 58.5h-105q-88 0 -117.5 -25.5t-29.5 -99.5v-416h221q105 0 155 36.5t50 111.5q0 6 11 6t11 -6q0 -47 -1 -99t-1 -73q0 -30 3 -95t3 -102 q0 -5 -12 -5t-12 5q0 89 -51 130.5t-160 41.5h-217v-467q0 -76 26.5 -101.5t110.5 -25.5h133q116 0 193 68.5t106 195.5z" />
<glyph unicode="&#xca;" horiz-adv-x="1110" d="M381 1411q-2 -1 -6 2t-6 6.5t0 5.5l211 211q9 9 23.5 9t21.5 -9l211 -211q7 -4 -2 -11q-5 -4 -9 -3l-221 102zM987 311q1 6 13 4.5t12 -6.5q-21 -164 -21 -278q0 -18 -6 -24.5t-24 -6.5h-873q-4 0 -4 12.5t4 12.5q106 0 136 26t30 115v948q0 88 -30.5 114.5t-135.5 26.5 q-4 0 -4 12.5t4 12.5h836q20 0 20 -18l4 -261q0 -6 -10.5 -6t-13.5 6q-15 113 -80 171.5t-174 58.5h-105q-88 0 -117.5 -25.5t-29.5 -99.5v-416h221q105 0 155 36.5t50 111.5q0 6 11 6t11 -6q0 -47 -1 -99t-1 -73q0 -30 3 -95t3 -102q0 -5 -12 -5t-12 5q0 89 -51 130.5 t-160 41.5h-217v-467q0 -76 26.5 -101.5t110.5 -25.5h133q116 0 193 68.5t106 195.5z" />
<glyph unicode="&#xcb;" horiz-adv-x="1110" d="M422 1458q-43 0 -68.5 25t-25.5 69q0 41 25.5 64.5t68.5 23.5q44 0 69 -23.5t25 -64.5q0 -44 -25 -69t-69 -25zM782 1458q-45 0 -69.5 24.5t-24.5 69.5q0 42 24.5 65t69.5 23q43 0 66.5 -23.5t23.5 -64.5q0 -44 -23.5 -69t-66.5 -25zM987 311q1 6 13 4.5t12 -6.5 q-21 -164 -21 -278q0 -18 -6 -24.5t-24 -6.5h-873q-4 0 -4 12.5t4 12.5q106 0 136 26t30 115v948q0 88 -30.5 114.5t-135.5 26.5q-4 0 -4 12.5t4 12.5h836q20 0 20 -18l4 -261q0 -6 -10.5 -6t-13.5 6q-15 113 -80 171.5t-174 58.5h-105q-88 0 -117.5 -25.5t-29.5 -99.5v-416 h221q105 0 155 36.5t50 111.5q0 6 11 6t11 -6q0 -47 -1 -99t-1 -73q0 -30 3 -95t3 -102q0 -5 -12 -5t-12 5q0 89 -51 130.5t-160 41.5h-217v-467q0 -76 26.5 -101.5t110.5 -25.5h133q116 0 193 68.5t106 195.5z" />
<glyph unicode="&#xcc;" horiz-adv-x="686" d="M545 1389q-209 95 -455 159q-20 3 25 25q70 34 117 40q12 1 16 -1q31 -20 90 -62t111.5 -76.5t105.5 -62.5q6 -3 2.5 -14t-12.5 -8zM426 166q0 -90 29.5 -115.5t136.5 -25.5q4 0 4 -12.5t-4 -12.5q-31 0 -114.5 2t-137.5 2q-50 0 -133 -2t-113 -2q-6 0 -6 12.5t6 12.5 q106 0 136 26t30 115v948q0 88 -30.5 114.5t-135.5 26.5q-6 0 -6 12.5t6 12.5q30 0 113 -3t133 -3q54 0 138 3t114 3q4 0 4 -12.5t-4 -12.5q-104 0 -135 -28t-31 -117v-944z" />
<glyph unicode="&#xcd;" horiz-adv-x="686" d="M145 1389q-6 -2 -10.5 3t-4 10.5t4.5 8.5q70 37 184.5 115.5t124.5 85.5q14 9 100 -25q67 -27 62 -36q-1 -2 -6 -3q-249 -64 -455 -159zM426 166q0 -90 29.5 -115.5t136.5 -25.5q4 0 4 -12.5t-4 -12.5q-31 0 -114.5 2t-137.5 2q-50 0 -133 -2t-113 -2q-6 0 -6 12.5 t6 12.5q106 0 136 26t30 115v948q0 88 -30.5 114.5t-135.5 26.5q-6 0 -6 12.5t6 12.5q30 0 113 -3t133 -3q54 0 138 3t114 3q4 0 4 -12.5t-4 -12.5q-104 0 -135 -28t-31 -117v-944z" />
<glyph unicode="&#xce;" horiz-adv-x="686" d="M111 1425l211 211q9 9 22.5 9t22.5 -9l211 -211q7 -4 -2 -11q-6 -5 -11 -3l-219 102l-223 -102q-2 -1 -6 2t-6 6.5t0 5.5zM426 166q0 -90 29.5 -115.5t136.5 -25.5q4 0 4 -12.5t-4 -12.5q-31 0 -114.5 2t-137.5 2q-50 0 -133 -2t-113 -2q-6 0 -6 12.5t6 12.5 q106 0 136 26t30 115v948q0 88 -30.5 114.5t-135.5 26.5q-6 0 -6 12.5t6 12.5q30 0 113 -3t133 -3q54 0 138 3t114 3q4 0 4 -12.5t-4 -12.5q-104 0 -135 -28t-31 -117v-944z" />
<glyph unicode="&#xcf;" horiz-adv-x="686" d="M195 1458q-45 0 -71 25t-26 69q0 41 26 64.5t71 23.5q43 0 67.5 -23.5t24.5 -64.5q0 -44 -24.5 -69t-67.5 -25zM492 1458q-43 0 -69 25t-26 69q0 41 26 64.5t69 23.5t67.5 -23.5t24.5 -64.5q0 -44 -24.5 -69t-67.5 -25zM426 166q0 -90 29.5 -115.5t136.5 -25.5 q4 0 4 -12.5t-4 -12.5q-31 0 -114.5 2t-137.5 2q-50 0 -133 -2t-113 -2q-6 0 -6 12.5t6 12.5q106 0 136 26t30 115v948q0 88 -30.5 114.5t-135.5 26.5q-6 0 -6 12.5t6 12.5q30 0 113 -3t133 -3q54 0 138 3t114 3q4 0 4 -12.5t-4 -12.5q-104 0 -135 -28t-31 -117v-944z" />
<glyph unicode="&#xd0;" horiz-adv-x="1425" d="M606 1284q160 0 295 -48t227.5 -131t144.5 -197.5t52 -245.5q0 -150 -55.5 -277t-149.5 -212.5t-219.5 -133t-265.5 -47.5q-39 0 -153 6t-167 6q-49 0 -131.5 -2t-113.5 -2q-6 0 -6 12.5t6 12.5q106 0 137 26t31 115v448h-129q-9 0 -9 24t9 24h129v452q0 88 -30.5 114.5 t-135.5 26.5q-4 0 -4 12.5t4 12.5q31 0 112.5 -3t130.5 -3t151.5 5t139.5 5zM612 29q236 0 381.5 154.5t145.5 432.5q0 177 -61.5 320t-179.5 227t-273 84q-130 0 -178 -25.5t-48 -111.5v-448h279q9 0 9 -24t-9 -24h-279v-426q0 -87 43.5 -123t169.5 -36z" />
<glyph unicode="&#xd1;" horiz-adv-x="1492" d="M520 1427q-2 -2 -6 0.5t-7 7t-1 7.5q90 139 178 139q26 0 112.5 -25.5t137.5 -25.5q35 0 57 13t47 42q2 2 6.5 0.5t7.5 -6t1 -8.5q-56 -83 -90 -111t-76 -28q-40 0 -126.5 25.5t-137.5 25.5q-16 0 -29 -2.5t-24 -9.5t-16.5 -11.5t-17 -16zM1454 1280q4 0 4 -12.5 t-4 -12.5q-168 0 -168 -211v-1071q0 -5 -10 -6.5t-14 2.5l-961 1141v-874q0 -211 164 -211q5 0 5 -12.5t-5 -12.5q-26 0 -86.5 2t-97.5 2q-39 0 -107.5 -2t-97.5 -2q-4 0 -4 12.5t4 12.5q90 0 133 52t43 159v927q-92 92 -180 92q-4 0 -4 12.5t4 12.5q24 0 76 -2t73 -2 q38 0 90 2t62 2q13 0 22.5 -6.5t16 -16.5t23.5 -34.5t36 -48.5l766 -922v792q0 211 -162 211q-5 0 -5 12.5t5 12.5q25 0 87 -3t100 -3q36 0 101 3t91 3z" />
<glyph unicode="&#xd2;" horiz-adv-x="1568" d="M991 1389q-214 97 -454 159q-20 3 25 25q70 35 117 40q11 1 15 -1q31 -20 90 -62t111.5 -76.5t105.5 -62.5q6 -3 2.5 -14t-12.5 -8zM750 -25q-191 0 -341 91t-229.5 242t-79.5 331q0 129 43 239t115 187t165.5 131.5t195 80.5t202.5 26q146 0 270 -55t205.5 -146.5 t126.5 -208t45 -240.5q0 -140 -58 -266t-155 -216t-229 -143t-276 -53zM821 23q97 0 181 38t146.5 109t98 180.5t35.5 245.5q0 189 -66 338t-190.5 234t-288.5 85q-214 0 -332 -144t-118 -398q0 -193 67 -350t189.5 -247.5t277.5 -90.5z" />
<glyph unicode="&#xd3;" horiz-adv-x="1568" d="M592 1389q-6 -2 -10.5 3t-4 10.5t4.5 8.5q70 37 184.5 115.5t124.5 85.5q14 9 100 -25q67 -27 62 -36q-1 -2 -6 -3q-242 -63 -455 -159zM750 -25q-191 0 -341 91t-229.5 242t-79.5 331q0 129 43 239t115 187t165.5 131.5t195 80.5t202.5 26q146 0 270 -55t205.5 -146.5 t126.5 -208t45 -240.5q0 -140 -58 -266t-155 -216t-229 -143t-276 -53zM821 23q97 0 181 38t146.5 109t98 180.5t35.5 245.5q0 189 -66 338t-190.5 234t-288.5 85q-214 0 -332 -144t-118 -398q0 -193 67 -350t189.5 -247.5t277.5 -90.5z" />
<glyph unicode="&#xd4;" horiz-adv-x="1568" d="M557 1425l211 211q9 9 23.5 9t21.5 -9l211 -211q3 -2 2 -6t-5 -7t-7 -1l-221 102l-224 -102q-2 -1 -6 2t-6 6.5t0 5.5zM750 -25q-191 0 -341 91t-229.5 242t-79.5 331q0 129 43 239t115 187t165.5 131.5t195 80.5t202.5 26q146 0 270 -55t205.5 -146.5t126.5 -208 t45 -240.5q0 -140 -58 -266t-155 -216t-229 -143t-276 -53zM821 23q97 0 181 38t146.5 109t98 180.5t35.5 245.5q0 189 -66 338t-190.5 234t-288.5 85q-214 0 -332 -144t-118 -398q0 -193 67 -350t189.5 -247.5t277.5 -90.5z" />
<glyph unicode="&#xd5;" horiz-adv-x="1568" d="M950 1530q35 0 56 13t47 42q3 3 7.5 1t6.5 -6.5t0 -8.5q-54 -83 -88 -111t-76 -28q-40 0 -126.5 25.5t-137.5 25.5q-16 0 -29 -2.5t-23.5 -9.5t-16 -11.5t-17 -16l-16.5 -16.5q-3 -2 -8 0.5t-7 7t0 7.5q90 139 176 139q27 0 113.5 -25.5t138.5 -25.5zM750 -25 q-191 0 -341 91t-229.5 242t-79.5 331q0 129 43 239t115 187t165.5 131.5t195 80.5t202.5 26q146 0 270 -55t205.5 -146.5t126.5 -208t45 -240.5q0 -140 -58 -266t-155 -216t-229 -143t-276 -53zM821 23q97 0 181 38t146.5 109t98 180.5t35.5 245.5q0 189 -66 338 t-190.5 234t-288.5 85q-214 0 -332 -144t-118 -398q0 -193 67 -350t189.5 -247.5t277.5 -90.5z" />
<glyph unicode="&#xd6;" horiz-adv-x="1568" d="M610 1458q-43 0 -68.5 25t-25.5 69q0 41 25.5 64.5t68.5 23.5q44 0 69.5 -23.5t25.5 -64.5q0 -44 -25.5 -69t-69.5 -25zM969 1458q-44 0 -68 25t-24 69q0 42 24 65t68 23t68 -23t24 -65q0 -44 -24 -69t-68 -25zM750 -25q-191 0 -341 91t-229.5 242t-79.5 331 q0 129 43 239t115 187t165.5 131.5t195 80.5t202.5 26q146 0 270 -55t205.5 -146.5t126.5 -208t45 -240.5q0 -140 -58 -266t-155 -216t-229 -143t-276 -53zM821 23q97 0 181 38t146.5 109t98 180.5t35.5 245.5q0 189 -66 338t-190.5 234t-288.5 85q-214 0 -332 -144 t-118 -398q0 -193 67 -350t189.5 -247.5t277.5 -90.5z" />
<glyph unicode="&#xd7;" horiz-adv-x="792" d="M461 459l205 -207q5 -5 -9 -22.5t-31 -31.5t-20 -10l-209 207l-209 -209q-4 -3 -21 11t-31 30t-11 19l211 211l-209 209q-4 5 10 22t30.5 31t18.5 12l213 -213l207 207q3 5 20 -8.5t31 -30.5t9 -22z" />
<glyph unicode="&#xd8;" horiz-adv-x="1591" d="M1284 1114q89 -90 136.5 -210.5t47.5 -250.5q0 -140 -58 -266t-155 -216t-229 -143t-276 -53q-254 0 -433 158l-147 -149q-3 -4 -12.5 2.5t-16.5 16.5t-2 15l146 148q-89 91 -137 213t-48 260q0 129 43 239t115 187t165.5 131.5t195 80.5t202.5 26q251 0 428 -156 l144 145q4 3 14.5 -2.5t17.5 -14t2 -13.5zM287 711q0 -251 108 -432l756 768q-72 98 -178 152t-236 54q-214 0 -332 -144t-118 -398zM821 23q97 0 181 38t146.5 109t98 180.5t35.5 245.5q0 242 -104 412l-756 -768q72 -103 174.5 -160t224.5 -57z" />
<glyph unicode="&#xd9;" horiz-adv-x="1433" d="M967 1389q-213 96 -455 159q-20 3 25 25q70 34 117 40q12 1 16 -1q31 -20 90 -62t111.5 -76.5t105.5 -62.5q6 -3 2.5 -14t-12.5 -8zM1171 1044q0 103 -46 157t-136 54q-5 0 -5 12.5t5 12.5q28 0 97.5 -3t111.5 -3q37 0 103 3t92 3q5 0 5 -12.5t-5 -12.5q-166 0 -166 -211 v-579q0 -229 -134 -360.5t-358 -131.5q-229 0 -368.5 131t-139.5 353v657q0 88 -31.5 114.5t-136.5 26.5q-5 0 -5 12.5t5 12.5q32 0 115 -3t133 -3q53 0 136 3t112 3q6 0 6 -12.5t-6 -12.5q-106 0 -137 -28t-31 -117v-582q0 -241 106 -364t298 -123q179 0 279.5 111.5 t100.5 310.5v581z" />
<glyph unicode="&#xda;" horiz-adv-x="1433" d="M567 1389q-6 -2 -10.5 3t-4 10.5t4.5 8.5q70 37 184.5 115.5t124.5 85.5q14 9 100 -25q67 -27 62 -36q-1 -2 -6 -3q-249 -64 -455 -159zM1171 1044q0 103 -46 157t-136 54q-5 0 -5 12.5t5 12.5q28 0 97.5 -3t111.5 -3q37 0 103 3t92 3q5 0 5 -12.5t-5 -12.5 q-166 0 -166 -211v-579q0 -229 -134 -360.5t-358 -131.5q-229 0 -368.5 131t-139.5 353v657q0 88 -31.5 114.5t-136.5 26.5q-5 0 -5 12.5t5 12.5q32 0 115 -3t133 -3q53 0 136 3t112 3q6 0 6 -12.5t-6 -12.5q-106 0 -137 -28t-31 -117v-582q0 -241 106 -364t298 -123 q179 0 279.5 111.5t100.5 310.5v581z" />
<glyph unicode="&#xdb;" horiz-adv-x="1433" d="M532 1425l211 211q9 9 23 9t22 -9l211 -211q3 -2 2 -6t-5 -7t-7 -1l-221 102l-223 -102q-2 -1 -6.5 2t-6.5 6.5t0 5.5zM1171 1044q0 103 -46 157t-136 54q-5 0 -5 12.5t5 12.5q28 0 97.5 -3t111.5 -3q37 0 103 3t92 3q5 0 5 -12.5t-5 -12.5q-166 0 -166 -211v-579 q0 -229 -134 -360.5t-358 -131.5q-229 0 -368.5 131t-139.5 353v657q0 88 -31.5 114.5t-136.5 26.5q-5 0 -5 12.5t5 12.5q32 0 115 -3t133 -3q53 0 136 3t112 3q6 0 6 -12.5t-6 -12.5q-106 0 -137 -28t-31 -117v-582q0 -241 106 -364t298 -123q179 0 279.5 111.5 t100.5 310.5v581z" />
<glyph unicode="&#xdc;" horiz-adv-x="1433" d="M586 1458q-43 0 -68.5 25t-25.5 69q0 41 25.5 64.5t68.5 23.5q44 0 69 -23.5t25 -64.5q0 -44 -25 -69t-69 -25zM944 1458q-44 0 -68 25t-24 69q0 42 24 65t68 23t68 -23t24 -65q0 -44 -24 -69t-68 -25zM1171 1044q0 103 -46 157t-136 54q-5 0 -5 12.5t5 12.5 q28 0 97.5 -3t111.5 -3q37 0 103 3t92 3q5 0 5 -12.5t-5 -12.5q-166 0 -166 -211v-579q0 -229 -134 -360.5t-358 -131.5q-229 0 -368.5 131t-139.5 353v657q0 88 -31.5 114.5t-136.5 26.5q-5 0 -5 12.5t5 12.5q32 0 115 -3t133 -3q53 0 136 3t112 3q6 0 6 -12.5t-6 -12.5 q-106 0 -137 -28t-31 -117v-582q0 -241 106 -364t298 -123q179 0 279.5 111.5t100.5 310.5v581z" />
<glyph unicode="&#xdd;" horiz-adv-x="1253" d="M455 1389q-5 -2 -9 3t-4 10.5t4 8.5q70 38 186.5 117t123.5 84q14 9 100 -26q66 -26 61 -35q-1 -2 -6 -3q-244 -63 -456 -159zM1262 1280q6 0 6 -12.5t-6 -12.5q-68 0 -148.5 -61.5t-144.5 -163.5l-254 -401v-463q0 -90 29 -115.5t135 -25.5q6 0 6 -12.5t-6 -12.5 q-30 0 -112.5 2t-135.5 2q-49 0 -133 -2t-115 -2q-5 0 -5 12.5t5 12.5q106 0 137 26t31 115v430l-326 483q-64 98 -115 137t-108 39q-4 0 -4 12.5t4 12.5q22 0 70 -3t69 -3q61 0 167 3t138 3q4 0 4 -12.5t-4 -12.5q-143 0 -75 -108l315 -469l229 362q63 100 46.5 157.5 t-109.5 57.5q-4 0 -4 12.5t4 12.5q36 0 113 -3t139 -3q35 0 82.5 3t75.5 3z" />
<glyph unicode="&#xde;" horiz-adv-x="1107" d="M573 301q118 0 199.5 89t81.5 257q0 163 -84.5 251.5t-226.5 88.5q-73 0 -137 -12v-801q0 -65 16 -94.5t63 -42t150 -12.5q5 0 5 -12.5t-5 -12.5q-41 0 -143.5 2t-165.5 2q-48 0 -129 -2t-109 -2q-6 0 -6 12.5t6 12.5q99 0 126.5 25.5t27.5 115.5v948q0 89 -27.5 115 t-126.5 26q-6 0 -6 12.5t6 12.5q28 0 109 -3t129 -3q63 0 165.5 3t143.5 3q5 0 5 -12.5t-5 -12.5q-103 0 -150 -12.5t-63 -42.5t-16 -96v-94q99 12 188 12q94 0 170.5 -18t138 -56t96.5 -104t37 -156q3 -104 -37 -187t-106.5 -131t-143 -73t-155.5 -25q-40 0 -100 11 q-4 1 -4.5 8t2.5 13t8 5q46 -8 73 -8z" />
<glyph unicode="&#xdf;" horiz-adv-x="1099" d="M795 25q56 0 90.5 37t34.5 104q0 82 -52.5 157.5t-175.5 170.5q-19 11 -8 30l160 244q-193 156 -340 156q-98 0 -145.5 -67.5t-47.5 -231.5v-459q0 -90 18.5 -115.5t84.5 -25.5q4 0 4 -12.5t-4 -12.5q-28 0 -92.5 1t-90.5 1q-42 0 -114 -1t-101 -1q-4 0 -4 12.5t4 12.5 q92 0 120 26.5t28 114.5v416q0 73 27.5 143t78 128.5t131.5 94t179 35.5q137 0 274 -55q50 -20 71 -14t56 51q6 9 16 2t7 -15l-226 -344q147 -101 209 -183.5t62 -168.5q0 -108 -89 -192t-237 -84q-93 0 -182 47q-19 8 -19 39l-14 190q-1 5 4 8t11.5 2t8.5 -6 q38 -97 112.5 -166t150.5 -69z" />
<glyph unicode="&#xe0;" horiz-adv-x="980" d="M264 1227q-19 3 23 24q69 33 119 40q12 1 16 -1q29 -19 90 -61t113 -76t104 -63q4 -3 4.5 -8.5t-4 -10.5t-10.5 -2q-230 102 -455 158zM948 115q6 2 11 -2.5t4.5 -10t-5.5 -8.5l-219 -106q-8 -4 -16 -4q-30 0 -56.5 39t-35.5 100l-139 -72q-127 -65 -199 -65 q-70 0 -112 34.5t-42 98.5q0 60 42 97.5t141 76.5l305 113v284q0 125 -32 182.5t-103 57.5q-76 0 -122.5 -62.5t-62.5 -148.5q-18 -88 -94 -88q-37 0 -61 22t-23 54q1 55 73.5 119.5t176.5 107.5t190 43q96 0 152.5 -56t56.5 -169v-510q0 -152 84 -152q24 0 86 25zM494 90 l133 64v18v203l-226 -90q-90 -32 -90 -115q0 -49 25.5 -75.5t69.5 -26.5q43 0 88 22z" />
<glyph unicode="&#xe1;" horiz-adv-x="980" d="M326 1069q-6 -3 -10.5 2t-4.5 10.5t4 8.5q52 29 105 63.5t112.5 75t92.5 61.5q14 9 100 -25q66 -26 61 -35q-1 -2 -6 -3q-215 -53 -454 -158zM948 115q6 2 11 -2.5t4.5 -10t-5.5 -8.5l-219 -106q-8 -4 -16 -4q-30 0 -56.5 39t-35.5 100l-139 -72q-127 -65 -199 -65 q-70 0 -112 34.5t-42 98.5q0 60 42 97.5t141 76.5l305 113v284q0 125 -32 182.5t-103 57.5q-76 0 -122.5 -62.5t-62.5 -148.5q-18 -88 -94 -88q-37 0 -61 22t-23 54q1 55 73.5 119.5t176.5 107.5t190 43q96 0 152.5 -56t56.5 -169v-510q0 -152 84 -152q24 0 86 25zM494 90 l133 64v18v203l-226 -90q-90 -32 -90 -115q0 -49 25.5 -75.5t69.5 -26.5q43 0 88 22z" />
<glyph unicode="&#xe2;" horiz-adv-x="980" d="M299 1077q-7 -2 -13 7q-2 6 1 8l211 211q8 9 22 9t23 -9l211 -211q2 -2 0.5 -6.5t-6 -7.5t-7.5 -1l-221 107zM948 115q6 2 11 -2.5t4.5 -10t-5.5 -8.5l-219 -106q-8 -4 -16 -4q-30 0 -56.5 39t-35.5 100l-139 -72q-127 -65 -199 -65q-70 0 -112 34.5t-42 98.5 q0 60 42 97.5t141 76.5l305 113v284q0 125 -32 182.5t-103 57.5q-76 0 -122.5 -62.5t-62.5 -148.5q-18 -88 -94 -88q-37 0 -61 22t-23 54q1 55 73.5 119.5t176.5 107.5t190 43q96 0 152.5 -56t56.5 -169v-510q0 -152 84 -152q24 0 86 25zM494 90l133 64v18v203l-226 -90 q-90 -32 -90 -115q0 -49 25.5 -75.5t69.5 -26.5q43 0 88 22z" />
<glyph unicode="&#xe3;" horiz-adv-x="980" d="M260 1106q-4 -4 -12 5q-6 5 -2 9q96 140 186 140q32 0 117.5 -25t136.5 -25q33 0 54.5 13.5t45.5 42.5q3 3 11 -4t4 -11q-56 -82 -93 -110.5t-79 -28.5q-43 0 -131 24.5t-138 24.5q-13 0 -24.5 -2.5t-19 -5t-16.5 -9.5t-13 -10.5t-13.5 -13.5t-13.5 -14zM948 115 q6 2 11 -2.5t4.5 -10t-5.5 -8.5l-219 -106q-8 -4 -16 -4q-30 0 -56.5 39t-35.5 100l-139 -72q-127 -65 -199 -65q-70 0 -112 34.5t-42 98.5q0 60 42 97.5t141 76.5l305 113v284q0 125 -32 182.5t-103 57.5q-76 0 -122.5 -62.5t-62.5 -148.5q-18 -88 -94 -88q-37 0 -61 22 t-23 54q1 55 73.5 119.5t176.5 107.5t190 43q96 0 152.5 -56t56.5 -169v-510q0 -152 84 -152q24 0 86 25zM494 90l133 64v18v203l-226 -90q-90 -32 -90 -115q0 -49 25.5 -75.5t69.5 -26.5q43 0 88 22z" />
<glyph unicode="&#xe4;" horiz-adv-x="980" d="M338 1139q-43 0 -67.5 24t-24.5 68q0 41 24.5 64.5t67.5 23.5q45 0 69.5 -23t24.5 -65q0 -44 -24 -68t-70 -24zM698 1139q-44 0 -69 24t-25 68q0 41 25 64.5t69 23.5q43 0 66.5 -23.5t23.5 -64.5q0 -44 -23.5 -68t-66.5 -24zM948 115q6 2 11 -2.5t4.5 -10t-5.5 -8.5 l-219 -106q-8 -4 -16 -4q-30 0 -56.5 39t-35.5 100l-139 -72q-127 -65 -199 -65q-70 0 -112 34.5t-42 98.5q0 60 42 97.5t141 76.5l305 113v284q0 125 -32 182.5t-103 57.5q-76 0 -122.5 -62.5t-62.5 -148.5q-18 -88 -94 -88q-37 0 -61 22t-23 54q1 55 73.5 119.5 t176.5 107.5t190 43q96 0 152.5 -56t56.5 -169v-510q0 -152 84 -152q24 0 86 25zM494 90l133 64v18v203l-226 -90q-90 -32 -90 -115q0 -49 25.5 -75.5t69.5 -26.5q43 0 88 22z" />
<glyph unicode="&#xe5;" horiz-adv-x="940" d="M449 1126q-88 0 -140.5 47.5t-52.5 114.5q0 74 65 116t146 42q80 0 136 -47.5t56 -114.5q0 -71 -64 -114.5t-146 -43.5zM426 1423q-32 0 -45.5 -22t-13.5 -72q0 -69 30.5 -124.5t81.5 -55.5q36 0 52 23t16 75q0 71 -35.5 123.5t-85.5 52.5zM948 115q6 2 11 -2.5t4.5 -10 t-5.5 -8.5l-219 -106q-8 -4 -16 -4q-30 0 -56.5 39t-35.5 100l-139 -72q-127 -65 -199 -65q-70 0 -112 34.5t-42 98.5q0 60 42 97.5t141 76.5l305 113v284q0 125 -32 182.5t-103 57.5q-76 0 -122.5 -62.5t-62.5 -148.5q-18 -88 -94 -88q-37 0 -61 22t-23 54q1 55 73.5 119.5 t176.5 107.5t190 43q96 0 152.5 -56t56.5 -169v-510q0 -152 84 -152q24 0 86 25zM494 90l133 64v18v203l-226 -90q-90 -32 -90 -115q0 -49 25.5 -75.5t69.5 -26.5q43 0 88 22z" />
<glyph unicode="&#xe6;" horiz-adv-x="1314" d="M1296 111q5 3 12 -6t3 -15q-146 -115 -314 -115q-236 0 -327 177l-207 -107q-65 -33 -106.5 -46t-86.5 -13q-83 0 -126.5 35.5t-43.5 99.5q0 59 41 100t131 74l336 125q-2 14 -2 47q-1 100 -3.5 164t-9 120.5t-16 87.5t-26.5 54t-39 31t-55 8q-48 0 -84 -17.5t-56 -47.5 t-30.5 -60t-14.5 -64q-9 -104 -90 -104q-39 0 -59.5 20.5t-20.5 53.5q0 58 64.5 120t164 103t193.5 41q90 0 136.5 -44t60.5 -136q97 180 319 180q117 0 182.5 -64t65.5 -170q0 -45 -24 -45h-99l-393 -4q-16 -82 -16 -180q0 -230 76 -348.5t251 -118.5q115 0 213 64z M985 936q-74 0 -127.5 -54.5t-79.5 -156.5l340 8q0 98 -35 150.5t-98 52.5zM465 86l192 90q-37 79 -47 209l-252 -96q-90 -37 -90 -115q0 -52 32 -80t79 -28q42 0 86 20z" />
<glyph unicode="&#xe7;" horiz-adv-x="1097" d="M983 287q1 7 12 5.5t11 -7.5l-23 -217q-3 -18 -8 -24t-23 -13q-157 -56 -321 -56q-23 -83 -11.5 -110.5t78.5 -65.5q53 -33 83 -68t30 -89q0 -81 -55.5 -143t-167.5 -62q-63 0 -101 21.5t-38 64.5q0 26 20.5 45.5t46.5 19.5q29 0 46 -17t23 -37t23.5 -37t48.5 -17 q60 0 60 67q0 54 -37.5 95.5t-134.5 97.5q-23 12 -25 21t10 40q33 76 66 174q-113 4 -204.5 38t-150 85.5t-98.5 118.5t-56.5 133t-16.5 133q0 140 73.5 255t203 180t288.5 65q78 0 166 -15.5t145 -43.5q25 -11 25 -35l16 -211q0 -6 -11.5 -7.5t-12.5 5.5q-99 272 -365 272 q-158 0 -255 -121.5t-97 -312.5q0 -94 25 -182t72.5 -161t127 -117t178.5 -44q239 0 334 277z" />
<glyph unicode="&#xe8;" horiz-adv-x="909" d="M266 1227q-20 3 24 24q69 34 118 40q12 1 16 -1q30 -20 90 -61.5t112 -75.5t105 -63q3 -3 3.5 -8.5t-3.5 -10.5t-10 -2q-237 104 -455 158zM842 111q6 4 13 -8q5 -8 1 -13q-146 -115 -317 -115q-113 0 -204.5 41.5t-148 110.5t-86.5 155t-30 179q0 218 148.5 368 t369.5 150q126 0 198 -65.5t72 -170.5q0 -47 -24 -47l-586 -2q-19 -74 -19 -155q0 -218 105.5 -356t288.5 -138q122 0 219 66zM518 934q-94 0 -161.5 -54t-100.5 -153l436 8q-1 94 -49.5 146.5t-124.5 52.5z" />
<glyph unicode="&#xe9;" horiz-adv-x="909" d="M326 1069q-5 -3 -9 2t-4 10.5t4 8.5q52 29 105 63.5t112.5 75t92.5 61.5q14 9 100 -25q66 -26 61 -35q-1 -2 -6 -3q-220 -54 -456 -158zM842 111q6 4 13 -8q5 -8 1 -13q-146 -115 -317 -115q-113 0 -204.5 41.5t-148 110.5t-86.5 155t-30 179q0 218 148.5 368t369.5 150 q126 0 198 -65.5t72 -170.5q0 -47 -24 -47l-586 -2q-19 -74 -19 -155q0 -218 105.5 -356t288.5 -138q122 0 219 66zM518 934q-94 0 -161.5 -54t-100.5 -153l436 8q-1 94 -49.5 146.5t-124.5 52.5z" />
<glyph unicode="&#xea;" horiz-adv-x="909" d="M299 1077q-2 -1 -6 2t-6 7t0 6l211 211q9 9 23.5 9t21.5 -9l211 -211q3 -2 2 -6.5t-5.5 -7.5t-7.5 -1l-221 107zM842 111q6 4 13 -8q5 -8 1 -13q-146 -115 -317 -115q-113 0 -204.5 41.5t-148 110.5t-86.5 155t-30 179q0 218 148.5 368t369.5 150q126 0 198 -65.5 t72 -170.5q0 -47 -24 -47l-586 -2q-19 -74 -19 -155q0 -218 105.5 -356t288.5 -138q122 0 219 66zM518 934q-94 0 -161.5 -54t-100.5 -153l436 8q-1 94 -49.5 146.5t-124.5 52.5z" />
<glyph unicode="&#xeb;" horiz-adv-x="909" d="M340 1139q-43 0 -68.5 24t-25.5 68q0 41 25.5 64.5t68.5 23.5q44 0 69 -23.5t25 -64.5q0 -44 -25 -68t-69 -24zM700 1139q-46 0 -70 24t-24 68q0 42 24.5 65t69.5 23q43 0 67 -23.5t24 -64.5q0 -44 -24 -68t-67 -24zM842 111q6 4 13 -8q5 -8 1 -13q-146 -115 -317 -115 q-113 0 -204.5 41.5t-148 110.5t-86.5 155t-30 179q0 218 148.5 368t369.5 150q126 0 198 -65.5t72 -170.5q0 -47 -24 -47l-586 -2q-19 -74 -19 -155q0 -218 105.5 -356t288.5 -138q122 0 219 66zM518 934q-94 0 -161.5 -54t-100.5 -153l436 8q-1 94 -49.5 146.5 t-124.5 52.5z" />
<glyph unicode="&#xec;" horiz-adv-x="608" d="M510 1069q-230 102 -455 158q-18 3 23 23q68 34 118 41q13 1 17 -1q29 -19 90 -61t113 -76t104 -63q4 -3 4.5 -8.5t-4 -10.5t-10.5 -2zM381 166q0 -90 25.5 -115.5t119.5 -25.5q6 0 6 -12.5t-6 -12.5q-27 0 -101.5 2t-123.5 2q-43 0 -117.5 -2t-101.5 -2q-6 0 -6 12.5 t6 12.5q95 0 121 25.5t26 115.5v627q0 89 -26.5 115t-120.5 26q-6 0 -6 12t6 12q27 0 101.5 -3t117.5 -3q49 0 124 3t101 3q6 0 6 -12t-6 -12q-92 0 -118.5 -28t-26.5 -118v-622z" />
<glyph unicode="&#xed;" horiz-adv-x="608" d="M117 1069q-6 -3 -10.5 2t-4.5 10.5t4 8.5q52 29 105 63.5t112.5 75t92.5 61.5q14 9 100 -25q66 -26 61 -35q-1 -2 -6 -3q-215 -53 -454 -158zM381 166q0 -90 25.5 -115.5t119.5 -25.5q6 0 6 -12.5t-6 -12.5q-27 0 -101.5 2t-123.5 2q-43 0 -117.5 -2t-101.5 -2 q-6 0 -6 12.5t6 12.5q95 0 121 25.5t26 115.5v627q0 89 -26.5 115t-120.5 26q-6 0 -6 12t6 12q27 0 101.5 -3t117.5 -3q49 0 124 3t101 3q6 0 6 -12t-6 -12q-92 0 -118.5 -28t-26.5 -118v-622z" />
<glyph unicode="&#xee;" horiz-adv-x="608" d="M78 1092l211 211q9 9 22.5 9t22.5 -9l211 -211q2 -2 0.5 -6.5t-6 -7.5t-7.5 -1l-221 107l-221 -107q-7 -2 -13 7q-2 6 1 8zM381 166q0 -90 25.5 -115.5t119.5 -25.5q6 0 6 -12.5t-6 -12.5q-27 0 -101.5 2t-123.5 2q-43 0 -117.5 -2t-101.5 -2q-6 0 -6 12.5t6 12.5 q95 0 121 25.5t26 115.5v627q0 89 -26.5 115t-120.5 26q-6 0 -6 12t6 12q27 0 101.5 -3t117.5 -3q49 0 124 3t101 3q6 0 6 -12t-6 -12q-92 0 -118.5 -28t-26.5 -118v-622z" />
<glyph unicode="&#xef;" horiz-adv-x="608" d="M162 1139q-46 0 -71 24t-25 68q0 41 25 64.5t71 23.5q43 0 66.5 -23.5t23.5 -64.5q0 -44 -23.5 -68t-66.5 -24zM459 1139q-43 0 -68.5 24t-25.5 68q0 41 25.5 64.5t68.5 23.5t66.5 -23.5t23.5 -64.5q0 -44 -23.5 -68t-66.5 -24zM381 166q0 -90 25.5 -115.5t119.5 -25.5 q6 0 6 -12.5t-6 -12.5q-27 0 -101.5 2t-123.5 2q-43 0 -117.5 -2t-101.5 -2q-6 0 -6 12.5t6 12.5q95 0 121 25.5t26 115.5v627q0 89 -26.5 115t-120.5 26q-6 0 -6 12t6 12q27 0 101.5 -3t117.5 -3q49 0 124 3t101 3q6 0 6 -12t-6 -12q-92 0 -118.5 -28t-26.5 -118v-622z" />
<glyph unicode="&#xf0;" horiz-adv-x="1163" d="M539 963q259 0 406 -134t147 -344q0 -215 -148.5 -354t-380.5 -139q-38 0 -132.5 6t-139.5 6q-44 0 -119 -2t-102 -2q-6 0 -6 12.5t6 12.5q95 0 121 25.5t26 115.5v295h-100q-9 0 -9 22.5t9 22.5h100v287q0 89 -26 115t-119 26q-4 0 -4 12t4 12q27 0 101 -3t118 -3 q40 0 124.5 5.5t123.5 5.5zM539 27q179 0 279 113t100 323q0 96 -23 178.5t-69 148.5t-124 104t-180 38q-86 0 -120.5 -31t-34.5 -113v-282h241q9 0 9 -22.5t-9 -22.5h-241v-273q0 -89 34.5 -125t137.5 -36z" />
<glyph unicode="&#xf1;" horiz-adv-x="1220" d="M391 1106q-5 -3 -12 3.5t-4 10.5q102 140 188 140q32 0 117.5 -25t136.5 -25q33 0 55 13.5t46 42.5q2 2 6 -0.5t7 -7t1 -7.5q-58 -82 -95 -110.5t-77 -28.5q-44 0 -131 24.5t-137 24.5q-13 0 -25 -2.5t-19 -5t-16.5 -10t-13 -10t-14 -13.5t-13.5 -14zM1184 25 q4 0 4 -12.5t-4 -12.5q-23 0 -87 2t-100 2q-44 0 -114.5 -2t-94.5 -2q-6 0 -6 12.5t6 12.5q87 0 113.5 28t26.5 117v408q0 102 -18.5 172t-54 107t-78 52t-99.5 15q-88 0 -165.5 -40t-156.5 -132v-582q0 -89 25.5 -117t110.5 -28q4 0 4 -12.5t-4 -12.5q-26 0 -98.5 2 t-114.5 2q-40 0 -111.5 -2t-97.5 -2q-6 0 -6 12.5t6 12.5q87 0 113 26t26 115v627q0 88 -24.5 114.5t-110.5 26.5q-4 0 -4 12t4 12q22 0 66 -1t69 -1q24 0 59 1t51 1q25 0 31 -6.5t6 -31.5v-119q171 182 383 182q70 0 128.5 -18.5t106.5 -58t74.5 -108t26.5 -161.5v-471 q0 -89 20 -115t89 -26z" />
<glyph unicode="&#xf2;" d="M786 1067q-231 103 -454 158q-20 3 23 24q69 33 118 40q12 1 16 -1q30 -20 90.5 -61.5t113 -76t104.5 -63.5q4 -3 4 -8.5t-4.5 -10t-10.5 -1.5zM563 -25q-144 0 -258 69.5t-174.5 183t-60.5 247.5q0 120 50.5 219.5t131 160.5t176.5 94.5t193 33.5q109 0 202 -42.5 t153 -111.5t94 -156.5t34 -178.5q0 -104 -43 -199.5t-115 -165.5t-172.5 -112t-210.5 -42zM616 18q143 0 230.5 113t87.5 311q0 209 -103 351.5t-278 142.5q-151 0 -232 -105t-81 -299q0 -144 45 -260t131.5 -185t199.5 -69z" />
<glyph unicode="&#xf3;" d="M393 1067q-6 -3 -10.5 1.5t-4 10t4.5 8.5q69 39 182.5 115.5t126.5 85.5q14 9 100 -25q67 -26 62 -35q-1 -2 -6 -3q-218 -54 -455 -158zM563 -25q-144 0 -258 69.5t-174.5 183t-60.5 247.5q0 120 50.5 219.5t131 160.5t176.5 94.5t193 33.5q109 0 202 -42.5t153 -111.5 t94 -156.5t34 -178.5q0 -104 -43 -199.5t-115 -165.5t-172.5 -112t-210.5 -42zM616 18q143 0 230.5 113t87.5 311q0 209 -103 351.5t-278 142.5q-151 0 -232 -105t-81 -299q0 -144 45 -260t131.5 -185t199.5 -69z" />
<glyph unicode="&#xf4;" d="M354 1090l211 210q7 9 21.5 9t23.5 -9l211 -210q2 -2 0.5 -6.5t-5.5 -7.5t-7 -1l-221 107l-221 -107q-7 -2 -14 7q-2 6 1 8zM563 -25q-144 0 -258 69.5t-174.5 183t-60.5 247.5q0 120 50.5 219.5t131 160.5t176.5 94.5t193 33.5q109 0 202 -42.5t153 -111.5t94 -156.5 t34 -178.5q0 -104 -43 -199.5t-115 -165.5t-172.5 -112t-210.5 -42zM616 18q143 0 230.5 113t87.5 311q0 209 -103 351.5t-278 142.5q-151 0 -232 -105t-81 -299q0 -144 45 -260t131.5 -185t199.5 -69z" />
<glyph unicode="&#xf5;" d="M754 1208q33 0 54 13t46 41q4 6 12 -5q4 -5 2 -10q-56 -81 -93 -109t-79 -28q-43 0 -130.5 24.5t-137.5 24.5q-13 0 -24.5 -2.5t-19 -5t-16.5 -9.5t-13 -10.5t-13.5 -13.5t-13.5 -14q-3 -2 -8 0.5t-7 6.5t0 7q95 139 187 139q32 0 117.5 -24.5t136.5 -24.5zM563 -25 q-144 0 -258 69.5t-174.5 183t-60.5 247.5q0 120 50.5 219.5t131 160.5t176.5 94.5t193 33.5q109 0 202 -42.5t153 -111.5t94 -156.5t34 -178.5q0 -104 -43 -199.5t-115 -165.5t-172.5 -112t-210.5 -42zM616 18q143 0 230.5 113t87.5 311q0 209 -103 351.5t-278 142.5 q-151 0 -232 -105t-81 -299q0 -144 45 -260t131.5 -185t199.5 -69z" />
<glyph unicode="&#xf6;" d="M406 1135q-43 0 -68 25t-25 69q0 41 25 64.5t68 23.5q45 0 69.5 -23t24.5 -65q0 -45 -24.5 -69.5t-69.5 -24.5zM766 1135q-44 0 -69 25t-25 69q0 41 25 64.5t69 23.5q43 0 66.5 -23.5t23.5 -64.5q0 -44 -23.5 -69t-66.5 -25zM563 -25q-144 0 -258 69.5t-174.5 183 t-60.5 247.5q0 120 50.5 219.5t131 160.5t176.5 94.5t193 33.5q109 0 202 -42.5t153 -111.5t94 -156.5t34 -178.5q0 -104 -43 -199.5t-115 -165.5t-172.5 -112t-210.5 -42zM616 18q143 0 230.5 113t87.5 311q0 209 -103 351.5t-278 142.5q-151 0 -232 -105t-81 -299 q0 -144 45 -260t131.5 -185t199.5 -69z" />
<glyph unicode="&#xf7;" horiz-adv-x="815" d="M406 696q-47 0 -74 26.5t-27 72.5t27 71t74 25q46 0 72 -25t26 -71t-26 -72.5t-72 -26.5zM70 428q-6 0 -8 21.5t-0.5 43t6.5 21.5h677q9 0 9 -43t-9 -43h-675zM406 61q-48 0 -74.5 27t-26.5 76q0 43 27 67.5t74 24.5q46 0 72 -24.5t26 -67.5q0 -49 -26 -76t-72 -27z" />
<glyph unicode="&#xf8;" d="M965 840q67 -68 103 -159.5t36 -186.5q0 -104 -43 -199.5t-115 -165.5t-172.5 -112t-210.5 -42q-190 0 -323 117l-105 -106q-3 -4 -12.5 2t-16 15.5t-2.5 14.5l103 105q-137 143 -137 352q0 120 50.5 219.5t131 160.5t176.5 94.5t193 33.5q182 0 311 -113l98 101 q6 6 22.5 -8t10.5 -21zM240 532q0 -179 67 -307l535 553q-104 158 -289 158q-151 0 -232 -105t-81 -299zM616 18q143 0 230.5 113t87.5 311q0 164 -68 297l-536 -553q107 -168 286 -168z" />
<glyph unicode="&#xf9;" horiz-adv-x="1249" d="M371 1227q-20 3 23 24q69 33 118 40q12 1 16 -1q28 -19 90 -61t114 -76t104 -63q4 -3 4 -8.5t-4.5 -10.5t-10.5 -2q-231 103 -454 158zM1182 958q4 0 4 -12t-4 -12q-88 0 -114 -26.5t-26 -114.5v-627q0 -90 24 -115.5t110 -25.5q6 0 6 -12.5t-6 -12.5q-22 0 -66 1t-68 1 q-26 0 -61 -1t-51 -1q-26 0 -32.5 6.5t-6.5 32.5v117q-172 -181 -381 -181q-145 0 -240.5 76.5t-95.5 220.5v521q0 88 -20 114.5t-88 26.5q-6 0 -6 12t6 12q22 0 85 -3t101 -3q45 0 115.5 3t93.5 3q5 0 5 -12t-5 -12q-86 0 -111.5 -28.5t-25.5 -117.5v-454 q0 -158 67.5 -229.5t183.5 -71.5q86 0 162.5 39.5t153.5 130.5v585q0 90 -23.5 118t-107.5 28q-6 0 -6 12t6 12q26 0 98 -3t115 -3q39 0 111 3t98 3z" />
<glyph unicode="&#xfa;" horiz-adv-x="1249" d="M432 1069q-6 -3 -10.5 2t-4 10.5t4.5 8.5q70 39 185.5 117t123.5 83q14 9 100 -25q67 -26 62 -35q-1 -2 -6 -3q-218 -54 -455 -158zM1182 958q4 0 4 -12t-4 -12q-88 0 -114 -26.5t-26 -114.5v-627q0 -90 24 -115.5t110 -25.5q6 0 6 -12.5t-6 -12.5q-22 0 -66 1t-68 1 q-26 0 -61 -1t-51 -1q-26 0 -32.5 6.5t-6.5 32.5v117q-172 -181 -381 -181q-145 0 -240.5 76.5t-95.5 220.5v521q0 88 -20 114.5t-88 26.5q-6 0 -6 12t6 12q22 0 85 -3t101 -3q45 0 115.5 3t93.5 3q5 0 5 -12t-5 -12q-86 0 -111.5 -28.5t-25.5 -117.5v-454 q0 -158 67.5 -229.5t183.5 -71.5q86 0 162.5 39.5t153.5 130.5v585q0 90 -23.5 118t-107.5 28q-6 0 -6 12t6 12q26 0 98 -3t115 -3q39 0 111 3t98 3z" />
<glyph unicode="&#xfb;" horiz-adv-x="1249" d="M406 1077q-7 -2 -14 7q-2 6 1 8l211 211q8 9 22 9t23 -9l211 -211q2 -2 0.5 -6.5t-5.5 -7.5t-7 -1l-221 107zM1182 958q4 0 4 -12t-4 -12q-88 0 -114 -26.5t-26 -114.5v-627q0 -90 24 -115.5t110 -25.5q6 0 6 -12.5t-6 -12.5q-22 0 -66 1t-68 1q-26 0 -61 -1t-51 -1 q-26 0 -32.5 6.5t-6.5 32.5v117q-172 -181 -381 -181q-145 0 -240.5 76.5t-95.5 220.5v521q0 88 -20 114.5t-88 26.5q-6 0 -6 12t6 12q22 0 85 -3t101 -3q45 0 115.5 3t93.5 3q5 0 5 -12t-5 -12q-86 0 -111.5 -28.5t-25.5 -117.5v-454q0 -158 67.5 -229.5t183.5 -71.5 q86 0 162.5 39.5t153.5 130.5v585q0 90 -23.5 118t-107.5 28q-6 0 -6 12t6 12q26 0 98 -3t115 -3q39 0 111 3t98 3z" />
<glyph unicode="&#xfc;" horiz-adv-x="1249" d="M444 1139q-43 0 -67.5 24t-24.5 68q0 41 24.5 64.5t67.5 23.5q45 0 70 -23t25 -65q0 -44 -24.5 -68t-70.5 -24zM805 1139q-44 0 -69 24t-25 68q0 41 25 64.5t69 23.5q43 0 66.5 -23.5t23.5 -64.5q0 -44 -23.5 -68t-66.5 -24zM1182 958q4 0 4 -12t-4 -12q-88 0 -114 -26.5 t-26 -114.5v-627q0 -90 24 -115.5t110 -25.5q6 0 6 -12.5t-6 -12.5q-22 0 -66 1t-68 1q-26 0 -61 -1t-51 -1q-26 0 -32.5 6.5t-6.5 32.5v117q-172 -181 -381 -181q-145 0 -240.5 76.5t-95.5 220.5v521q0 88 -20 114.5t-88 26.5q-6 0 -6 12t6 12q22 0 85 -3t101 -3 q45 0 115.5 3t93.5 3q5 0 5 -12t-5 -12q-86 0 -111.5 -28.5t-25.5 -117.5v-454q0 -158 67.5 -229.5t183.5 -71.5q86 0 162.5 39.5t153.5 130.5v585q0 90 -23.5 118t-107.5 28q-6 0 -6 12t6 12q26 0 98 -3t115 -3q39 0 111 3t98 3z" />
<glyph unicode="&#xfd;" horiz-adv-x="1046" d="M350 1069q-6 -3 -10 2t-3.5 10.5t3.5 8.5q71 39 186.5 117.5t122.5 82.5q16 9 102 -25q64 -26 60 -35q-1 -2 -6 -3q-218 -54 -455 -158zM1055 958q5 0 5 -12t-5 -12q-121 0 -181 -160l-301 -772q-49 -127 -121 -224t-151 -134q-8 -6 -30 10t-35 41q-17 30 -19.5 62 t10.5 34q108 20 182 64.5t121 140.5l-378 792q-41 86 -71.5 116t-84.5 30q-6 0 -6 12t6 12q28 0 88.5 -3t101.5 -3q49 0 117 3t94 3q6 0 6 -12t-6 -12q-71 0 -94 -28t6 -97l297 -612l223 589q29 70 0.5 109t-122.5 39q-5 0 -5 12t5 12q24 0 83 -3t109 -3q32 0 79 3t77 3z " />
<glyph unicode="&#xfe;" horiz-adv-x="944" d="M524 774q350 0 350 -254q0 -64 -21.5 -118.5t-56.5 -90.5t-81 -61.5t-94 -37t-97 -11.5q-54 0 -88 10q-5 1 -6 8t2 13.5t8 5.5q30 -9 64 -9q83 0 143 65t60 185q0 128 -63 195t-167 67q-65 0 -112 -12v-555q0 -94 26.5 -121.5t120.5 -27.5q6 0 6 -12.5t-6 -12.5 q-29 0 -102.5 2t-118.5 2q-44 0 -119 -2t-102 -2q-6 0 -6 12.5t6 12.5q93 0 119 25.5t26 115.5v627q0 89 -26 115t-119 26q-6 0 -6 12t6 12q27 0 102 -3t119 -3q45 0 118.5 3t102.5 3q6 0 6 -12t-6 -12q-94 0 -120.5 -28.5t-26.5 -123.5v-22q83 14 159 14z" />
<glyph unicode="&#xff;" horiz-adv-x="1046" d="M365 1139q-43 0 -69 24t-26 68q0 41 26 64.5t69 23.5q44 0 68 -23t24 -65q0 -44 -24 -68t-68 -24zM723 1139q-44 0 -68 24t-24 68q0 42 24 65t68 23q43 0 67.5 -23.5t24.5 -64.5q0 -44 -24.5 -68t-67.5 -24zM1055 958q5 0 5 -12t-5 -12q-121 0 -181 -160l-301 -772 q-49 -127 -121 -224t-151 -134q-8 -6 -30 10t-35 41q-17 30 -19.5 62t10.5 34q108 20 182 64.5t121 140.5l-378 792q-41 86 -71.5 116t-84.5 30q-6 0 -6 12t6 12q28 0 88.5 -3t101.5 -3q49 0 117 3t94 3q6 0 6 -12t-6 -12q-71 0 -94 -28t6 -97l297 -612l223 589 q29 70 0.5 109t-122.5 39q-5 0 -5 12t5 12q24 0 83 -3t109 -3q32 0 79 3t77 3z" />
<glyph unicode="&#x152;" horiz-adv-x="1884" d="M1761 309q1 6 13 5t12 -7q-21 -155 -21 -276q0 -18 -6 -24.5t-24 -6.5h-623q-45 0 -142 -4t-143 -4q-159 0 -295.5 48t-230.5 131.5t-147.5 198.5t-53.5 246q0 150 57.5 277t154.5 211.5t226.5 132t272.5 47.5q43 0 148 -2t155 -2h586q18 0 18 -18l4 -261q0 -5 -11 -5.5 t-11 5.5q-9 92 -78.5 162t-165.5 70h-117q-89 0 -119 -25t-30 -96v-422h225q105 0 154 36t49 112q0 4 12 4t12 -4q0 -46 -1 -98.5t-1 -73.5q0 -32 2.5 -95t2.5 -100q0 -6 -12.5 -6t-12.5 6q0 88 -50.5 130t-158.5 42h-221v-469q0 -73 28.5 -100t110.5 -27h146 q96 0 178.5 75.5t107.5 186.5zM1028 166v934q0 87 -37.5 118t-156.5 31q-244 0 -395.5 -155t-151.5 -432q0 -177 64 -321t187 -229t283 -85q123 0 165 26t42 113z" />
<glyph unicode="&#x153;" horiz-adv-x="1601" d="M1534 115q6 3 13 -6t1 -13q-72 -65 -145.5 -93t-165.5 -28q-114 0 -206 59t-148 167q-66 -104 -171 -165t-229 -61q-126 0 -224.5 69t-150 181.5t-51.5 245.5q0 121 46 221.5t119 162t159 95t172 33.5q120 0 210 -60.5t142 -162.5q60 102 159 159.5t214 57.5 q124 0 198 -64t74 -170q0 -24 -4.5 -34.5t-17.5 -10.5l-539 -4q-20 -81 -20 -198q0 -217 88.5 -333t249.5 -116q135 0 227 68zM1233 936q-86 0 -146 -55t-90 -156l385 10q0 95 -42.5 148t-106.5 53zM549 20q119 0 194 114.5t72 311.5q-2 131 -41.5 239.5t-118 177.5 t-182.5 69q-123 0 -187.5 -102t-62.5 -287q3 -142 43 -260t114 -190.5t169 -72.5z" />
<glyph unicode="&#x178;" horiz-adv-x="1253" d="M475 1458q-43 0 -68.5 25t-25.5 69q0 41 25.5 64.5t68.5 23.5q44 0 68 -23t24 -65q0 -44 -24 -69t-68 -25zM834 1458q-44 0 -68.5 25t-24.5 69q0 41 24.5 64.5t68.5 23.5q43 0 67.5 -23.5t24.5 -64.5q0 -44 -24.5 -69t-67.5 -25zM1262 1280q6 0 6 -12.5t-6 -12.5 q-68 0 -148.5 -61.5t-144.5 -163.5l-254 -401v-463q0 -90 29 -115.5t135 -25.5q6 0 6 -12.5t-6 -12.5q-30 0 -112.5 2t-135.5 2q-49 0 -133 -2t-115 -2q-5 0 -5 12.5t5 12.5q106 0 137 26t31 115v430l-326 483q-64 98 -115 137t-108 39q-4 0 -4 12.5t4 12.5q22 0 70 -3 t69 -3q61 0 167 3t138 3q4 0 4 -12.5t-4 -12.5q-143 0 -75 -108l315 -469l229 362q63 100 46.5 157.5t-109.5 57.5q-4 0 -4 12.5t4 12.5q36 0 113 -3t139 -3q35 0 82.5 3t75.5 3z" />
<glyph unicode="&#x2c6;" horiz-adv-x="536" d="M47 924l211 213q9 7 23.5 7t23.5 -7l209 -213q3 -2 2 -6.5t-5 -7.5t-7 -1l-221 107l-224 -107q-2 -1 -6 2t-6 7t0 6z" />
<glyph unicode="&#x2dc;" horiz-adv-x="786" d="M561 1042q35 0 56 13t47 43q2 2 6 -0.5t7 -7t1 -7.5q-56 -83 -93 -111t-81 -28q-42 0 -129 24.5t-137 24.5q-26 0 -46 -9.5t-26.5 -15.5t-28.5 -30q-3 -2 -7.5 0.5t-6.5 6.5t0 7q96 140 186 140q31 0 116.5 -25t135.5 -25z" />
<glyph unicode="&#x2000;" horiz-adv-x="839" />
<glyph unicode="&#x2001;" horiz-adv-x="1679" />
<glyph unicode="&#x2002;" horiz-adv-x="839" />
<glyph unicode="&#x2003;" horiz-adv-x="1679" />
<glyph unicode="&#x2004;" horiz-adv-x="559" />
<glyph unicode="&#x2005;" horiz-adv-x="419" />
<glyph unicode="&#x2006;" horiz-adv-x="279" />
<glyph unicode="&#x2007;" horiz-adv-x="279" />
<glyph unicode="&#x2008;" horiz-adv-x="209" />
<glyph unicode="&#x2009;" horiz-adv-x="335" />
<glyph unicode="&#x200a;" horiz-adv-x="93" />
<glyph unicode="&#x2010;" horiz-adv-x="577" d="M66 412q-6 -1 -8.5 22.5t-1.5 48t5 25.5l439 72q6 2 8 -22t0 -49t-8 -26z" />
<glyph unicode="&#x2011;" horiz-adv-x="577" d="M66 412q-6 -1 -8.5 22.5t-1.5 48t5 25.5l439 72q6 2 8 -22t0 -49t-8 -26z" />
<glyph unicode="&#x2012;" horiz-adv-x="577" d="M66 412q-6 -1 -8.5 22.5t-1.5 48t5 25.5l439 72q6 2 8 -22t0 -49t-8 -26z" />
<glyph unicode="&#x2013;" horiz-adv-x="1054" d="M70 442q-6 0 -8 22t-0.5 44t6.5 22h917q9 0 9 -44t-9 -44h-915z" />
<glyph unicode="&#x2014;" horiz-adv-x="1699" d="M70 442q-6 0 -8 22t-0.5 44t6.5 22h1562q9 0 9 -44t-9 -44h-1560z" />
<glyph unicode="&#x2018;" horiz-adv-x="350" d="M197 1010q41 0 65.5 -25.5t24.5 -66.5q0 -93 -107 -93q-66 0 -102.5 48.5t-36.5 140.5q0 85 39 157.5t115 145.5q6 6 13.5 -1t2.5 -13q-100 -103 -100 -242q0 -55 18 -82q19 31 68 31z" />
<glyph unicode="&#x2019;" horiz-adv-x="327" d="M147 1290q66 0 103 -48t37 -140q0 -85 -38.5 -157.5t-115.5 -147.5q-10 -6 -17 5q-3 6 1 9q100 106 100 244q0 53 -18 82q-19 -31 -68 -31q-41 0 -66.5 25.5t-25.5 66.5q0 92 108 92z" />
<glyph unicode="&#x201a;" horiz-adv-x="327" d="M147 168q66 0 103 -49.5t37 -141.5q0 -85 -38.5 -156.5t-115.5 -146.5q-5 -4 -10.5 -1.5t-7 7.5t1.5 9q100 103 100 241q0 57 -20 84q-18 -30 -66 -30q-41 0 -66.5 24.5t-25.5 65.5q0 94 108 94z" />
<glyph unicode="&#x201c;" horiz-adv-x="645" d="M197 1010q41 0 66.5 -25.5t25.5 -66.5q0 -93 -109 -93q-66 0 -102.5 48.5t-36.5 140.5q0 85 39 157.5t115 145.5q5 4 10.5 2t7 -7t-1.5 -9q-100 -103 -100 -242q0 -55 20 -82q19 31 66 31zM514 1010q41 0 65.5 -25.5t24.5 -66.5q0 -93 -106 -93q-67 0 -103.5 48 t-36.5 141q0 85 39 157.5t115 145.5q6 6 13.5 -1t2.5 -13q-100 -103 -100 -242q0 -55 18 -82q19 31 68 31z" />
<glyph unicode="&#x201d;" horiz-adv-x="645" d="M150 1290q65 0 101 -48t36 -140q0 -85 -38.5 -157.5t-115.5 -147.5q-4 -3 -9 -0.5t-7 7t0 7.5q100 106 100 244q0 56 -18 80q-19 -29 -68 -29q-41 0 -65.5 25.5t-24.5 66.5q0 92 109 92zM465 1290q66 0 102.5 -48t36.5 -140q0 -85 -38.5 -157.5t-114.5 -147.5 q-9 -6 -17 4q-5 6 0 10q101 107 101 244q0 52 -19 82q-19 -31 -67 -31q-41 0 -67 25.5t-26 66.5q0 92 109 92z" />
<glyph unicode="&#x201e;" horiz-adv-x="655" d="M147 168q66 0 103 -49.5t37 -141.5q0 -85 -38.5 -156.5t-115.5 -146.5q-5 -4 -10.5 -1.5t-7 7.5t1.5 9q100 103 100 241q0 57 -20 84q-18 -30 -66 -30q-41 0 -66.5 24.5t-25.5 65.5q0 94 108 94zM465 168q65 0 102 -49t37 -142q0 -85 -38 -156.5t-115 -146.5 q-6 -6 -14 1.5t-3 13.5q101 104 101 241q0 57 -19 82q-19 -28 -67 -28q-41 0 -66 24.5t-25 65.5q0 94 107 94z" />
<glyph unicode="&#x2022;" horiz-adv-x="636" d="M319 279q-84 0 -143 58t-59 142q0 82 59.5 141.5t142.5 59.5t142 -59.5t59 -141.5q0 -84 -58.5 -142t-142.5 -58z" />
<glyph unicode="&#x2026;" horiz-adv-x="1370" d="M209 -23q-47 0 -73.5 27t-26.5 76q0 43 26.5 67.5t73.5 24.5q46 0 72 -24.5t26 -67.5q0 -49 -26 -76t-72 -27zM688 -23q-47 0 -73.5 27t-26.5 76q0 43 26.5 67.5t73.5 24.5q46 0 72 -24.5t26 -67.5q0 -49 -26 -76t-72 -27zM1167 -23q-48 0 -75 27t-27 76q0 43 27.5 67.5 t74.5 24.5q46 0 72.5 -24.5t26.5 -67.5q0 -49 -26.5 -76t-72.5 -27z" />
<glyph unicode="&#x202f;" horiz-adv-x="335" />
<glyph unicode="&#x2039;" horiz-adv-x="622" d="M487 154l-370 307q-9 7 -9 21.5t9 23.5l370 305q2 3 6.5 2t7.5 -5t1 -7l-232 -318l232 -317q2 -7 -7 -13q-6 -3 -8 1z" />
<glyph unicode="&#x203a;" horiz-adv-x="622" d="M135 811l371 -305q9 -9 9 -23.5t-9 -21.5l-371 -307q-4 -7 -11 1q-5 6 -3 11l231 315l-231 320q-2 5 6 11q6 4 8 -1z" />
<glyph unicode="&#x205f;" horiz-adv-x="419" />
<glyph unicode="&#x20ac;" horiz-adv-x="1202" d="M100 514q-14 0 -14 24.5t14 24.5h93q31 185 188 302.5t379 117.5q198 0 301 -68q10 -6 14 -8t10 -7t7.5 -9t1.5 -10.5t-4 -14.5l-80 -182q-2 -3 -7.5 -3t-10.5 4t-3 9q15 69 -21 129t-104.5 93.5t-148.5 33.5q-144 0 -243.5 -109t-113.5 -278h600q15 0 5 -24t-25 -25 h-838zM1087 264q3 6 14 4t11 -8l-29 -192q-3 -18 -7 -24t-21 -13q-163 -56 -330 -56q-119 0 -214.5 33.5t-157 91t-99.5 123.5t-55 142h-97q-15 0 -15 24.5t15 24.5h801q15 0 5 -25q-10 -23 -23 -24h-512q16 -73 47 -136.5t76.5 -114t109.5 -79.5t139 -29q246 0 342 258z " />
<glyph unicode="&#x2122;" horiz-adv-x="1484" d="M582 1311q2 5 13 5t11 -5q-8 -172 -8 -187q0 -4 -11.5 -4t-11.5 4q0 68 -27 98.5t-83 30.5q-44 0 -57 -14t-13 -57v-379q0 -45 17 -59.5t77 -14.5q5 0 5 -12t-5 -12q-18 0 -69 1t-84 1q-29 0 -80 -1t-70 -1q-4 0 -4 12t4 12q58 0 76.5 14.5t18.5 59.5v381q0 44 -13 56.5 t-57 12.5q-59 0 -89.5 -29.5t-37.5 -99.5q0 -4 -12.5 -4t-12.5 4q13 72 13 181q0 6 12 6.5t12 -6.5q0 -23 56 -23q23 0 85.5 -1t98.5 -1q43 0 95 1t69 1q41 0 59.5 5t22.5 24zM1421 729q3 0 3 -12t-3 -12q-17 0 -63 1t-72 1q-32 0 -78.5 -1t-62.5 -1q-5 0 -5 12t5 12 q58 0 75.5 14.5t14.5 59.5l-12 360l-197 -448q-3 -7 -15.5 -7t-15.5 7l-219 424l-10 -308q-3 -54 13.5 -78t54.5 -24q3 0 3 -12t-3 -12q-12 0 -43 1t-52 1q-17 0 -53.5 -1t-50.5 -1q-3 0 -3 12t3 12q89 0 92 102l12 373q-39 51 -92 51q-5 0 -5 12.5t5 12.5q9 0 36 -2t34 -2 q13 0 39.5 2t29.5 2q18 0 31.5 -12.5t34.5 -50.5l190 -379l179 409q4 15 14.5 24t21.5 9q3 0 26 -2t40 -2q22 0 50 2t40 2q5 0 5 -12.5t-5 -12.5q-48 0 -68.5 -16.5t-19.5 -67.5l12 -368q2 -45 17.5 -59.5t66.5 -14.5z" />
<glyph unicode="&#x25fc;" horiz-adv-x="962" d="M0 963h963v-963h-963v963z" />
</font>
</defs>
</svg>
