<?xml version="1.0" standalone="no"?>
<!DOCTYPE svg PUBLIC "-//W3C//DTD SVG 1.1//EN" "http://www.w3.org/Graphics/SVG/1.1/DTD/svg11.dtd" >
<svg xmlns="http://www.w3.org/2000/svg" xmlns:xlink="http://www.w3.org/1999/xlink" version="1.1">
<metadata></metadata>
<defs>
<font id="cormorant_unicaselight" horiz-adv-x="1568" >
<font-face units-per-em="2048" ascent="1485" descent="-563" />
<missing-glyph horiz-adv-x="479" />
<glyph horiz-adv-x="0" />
<glyph horiz-adv-x="682" />
<glyph unicode=" "  horiz-adv-x="479" />
<glyph unicode="&#x09;" horiz-adv-x="479" />
<glyph unicode="&#xa0;" horiz-adv-x="479" />
<glyph unicode="!" horiz-adv-x="497" d="M168 1272q0 6 25.5 11t56.5 5q63 0 78 -12l2 -4q-47 -269 -74 -885q0 -5 -10 -5t-10 5q-22 612 -68 885zM250 -23q-38 0 -60 21.5t-22 58.5q0 35 22 55.5t60 20.5q37 0 57.5 -20.5t20.5 -55.5q0 -37 -20.5 -58.5t-57.5 -21.5z" />
<glyph unicode="&#x22;" horiz-adv-x="569" d="M113 748l-17 499q-1 27 65 51q57 21 73 12q3 -2 2 -5l-103 -555q-1 -3 -6 -5t-9.5 -1.5t-4.5 4.5zM399 748l-16 499q-1 26 63 51q58 21 74 12q3 -2 2 -5l-100 -555q-1 -3 -6.5 -5t-11 -1.5t-5.5 4.5z" />
<glyph unicode="#" horiz-adv-x="1077" d="M948 641q9 0 9 -38t-9 -38h-153l-60 -329h142q9 0 9 -39t-9 -39h-156l-55 -318q0 -6 -17.5 -6t-34.5 3.5t-16 8.5l55 312h-315l-55 -318q0 -6 -17.5 -6t-34.5 3.5t-16 8.5l55 312h-141q-6 0 -8 19.5t-0.5 39t6.5 19.5h158l57 329h-141q-6 0 -8 19t-0.5 38t6.5 19h157 l62 346q2 5 17 5t32 -5.5t16 -11.5l-59 -334h315l62 346q0 10 38 2q30 -6 27 -14l-59 -334h141zM668 236l57 329h-313l-60 -329h316z" />
<glyph unicode="$" horiz-adv-x="835" d="M737 246q0 -105 -74.5 -179.5t-207.5 -89.5v-186q0 -13 -20.5 -13t-20.5 13v184h-15q-129 0 -229 70q-15 8 -18 39l-25 195q-1 6 5 8.5t12.5 1.5t7.5 -6q20 -109 93.5 -187t168.5 -90v445l-19 10q-48 25 -74.5 40.5t-63.5 43t-56.5 52.5t-34 61.5t-14.5 78.5 q0 108 75 172t187 72v168q0 15 20.5 15t20.5 -15v-166q85 0 184 -47q19 -9 24.5 -14.5t6.5 -18.5l18 -174q0 -9 -11 -10.5t-13 6.5q-13 77 -71 143.5t-138 83.5v-409l30 -17q35 -18 53.5 -28t49.5 -28.5t48.5 -33t39.5 -37t33.5 -44t19.5 -50t8 -59.5zM244 786 q0 -75 44.5 -125.5t125.5 -95.5v391h-2q-78 0 -123 -47.5t-45 -122.5zM455 4q74 2 128 45.5t54 134.5q0 81 -48 137t-134 107v-424z" />
<glyph unicode="%" horiz-adv-x="1175" d="M307 455q-106 0 -177 77.5t-71 188.5q0 109 71 185.5t177 76.5q105 0 173.5 -77.5t68.5 -188.5t-68.5 -186.5t-173.5 -75.5zM285 -10q-2 -3 -14 1t-22.5 10.5t-8.5 10.5l651 957q4 4 16.5 -1t22 -13t6.5 -11zM322 477q38 0 62 16t36 49t16 69.5t4 90.5q0 259 -145 259 q-38 0 -64 -17.5t-39.5 -51.5t-18.5 -72.5t-5 -90.5q0 -252 154 -252zM874 -10q-106 0 -176.5 77.5t-70.5 188.5q0 109 70.5 185.5t176.5 76.5q105 0 173.5 -77.5t68.5 -188.5t-68.5 -186.5t-173.5 -75.5zM889 12q30 0 52 11.5t35 30.5t20 49.5t9.5 61t2.5 73.5 q0 258 -146 258q-38 0 -63.5 -17.5t-39 -51.5t-19 -72.5t-5.5 -90.5q0 -252 154 -252z" />
<glyph unicode="&#x26;" horiz-adv-x="1083" d="M1077 25q6 0 6 -12.5t-6 -12.5h-190q-68 0 -195 90q-135 -115 -323 -115q-144 0 -214.5 61.5t-70.5 151.5q0 36 12.5 70.5t30 60t49.5 56t56 49.5t65 49q-45 60 -74 119q-37 78 -37 147q0 109 81 176.5t188 67.5q32 0 61 -7t58.5 -23.5t47 -50.5t17.5 -83q0 -27 -4.5 -51 t-17.5 -47t-22 -39.5t-33.5 -39t-34.5 -33t-43 -33.5t-41.5 -29t-45.5 -31q92 -128 248 -262q74 -60 90 -70q74 99 74 217q0 57 -25.5 89t-95.5 32q-6 0 -6.5 12.5t6.5 12.5l342 2q8 0 8 -12.5t-8 -12.5q-17 0 -31 -1.5t-24.5 -3t-20 -6.5t-15.5 -7t-12.5 -11.5t-9 -12 t-7.5 -15t-6.5 -15.5t-6.5 -19.5t-6 -20.5q-40 -141 -127 -248q96 -67 180.5 -103t132.5 -36zM279 801q0 -114 106 -264q51 39 83 71.5t56.5 80t24.5 99.5q0 72 -41 114t-109 42q-120 0 -120 -143zM432 27q128 0 232 84q-57 43 -105 86q-149 133 -248 258 q-125 -98 -125 -213q0 -95 68.5 -155t177.5 -60z" />
<glyph unicode="'" horiz-adv-x="282" d="M113 748l-17 499q-1 27 65 51q57 21 73 12q3 -2 2 -5l-103 -555q-1 -3 -6 -5t-9.5 -1.5t-4.5 4.5z" />
<glyph unicode="(" horiz-adv-x="632" d="M143 623q0 291 110.5 522t307.5 340q3 2 7.5 -3t0.5 -9q-305 -279 -305 -850t305 -850q4 -3 -0.5 -9t-7.5 -4q-198 111 -308 342t-110 521z" />
<glyph unicode=")" horiz-adv-x="632" d="M489 623q0 -290 -110 -521t-307 -342q-3 -2 -8.5 4t-2.5 9q159 145 233.5 356t74.5 494t-74.5 494t-233.5 356q-3 4 2.5 9t8.5 3q197 -109 307 -340t110 -522z" />
<glyph unicode="*" horiz-adv-x="917" d="M463 1083l18 263q1 27 71 51q58 20 68 10q2 -1 1 -4l-138 -320q-1 -6 -10.5 -6t-9.5 6zM418 1047l-246 98q-28 11 -27 93q1 58 12 59q2 0 3 -1l264 -231q4 -3 3.5 -7t-3.5 -8t-6 -3zM862 999l-348 31q-4 0 -6.5 10t0.5 11l258 63q26 7 70 -52q35 -47 30 -61q-1 -2 -4 -2z M268 793q-18 -23 -93 1q-52 17 -54 30q0 2 2 3l299 179q4 4 11.5 -2t4.5 -11zM555 645l-78 340q-1 3 3 7t8.5 6.5t5.5 0.5l141 -225q14 -25 -32 -88q-32 -45 -45 -44q-2 0 -3 3z" />
<glyph unicode="+" horiz-adv-x="815" d="M745 498q9 0 9 -38t-9 -38h-299v-299q0 -6 -19 -8.5t-38.5 -1t-19.5 5.5v303h-299q-6 0 -8 19t-0.5 38t6.5 19h301v299q0 9 38.5 9t38.5 -9v-299h299z" />
<glyph unicode="," horiz-adv-x="454" d="M209 127q59 0 93 -44t34 -126q0 -80 -35.5 -147.5t-105.5 -135.5q-5 -4 -11 -1.5t-7.5 7.5t1.5 9q101 104 101 241q0 52 -21 84q-15 -30 -59 -30q-35 0 -54.5 19t-19.5 52q0 72 84 72z" />
<glyph unicode="-" horiz-adv-x="577" d="M66 418q-11 -4 -10 52q0 32 5 34l439 71q6 1 8 -20t0 -43t-8 -23z" />
<glyph unicode="." horiz-adv-x="399" d="M201 -23q-37 0 -59.5 21.5t-22.5 58.5q0 35 22.5 55.5t59.5 20.5q38 0 59 -20t21 -56q0 -37 -21 -58.5t-59 -21.5z" />
<glyph unicode="/" horiz-adv-x="694" d="M127 -334q-3 -7 -39.5 4t-34.5 19l516 1806q2 3 10 3t19.5 -3t21.5 -7.5t16.5 -9.5t4.5 -8z" />
<glyph unicode="0" horiz-adv-x="1120" d="M563 -27q-215 0 -351 142t-136 368q0 221 136.5 358.5t352.5 137.5q213 0 346 -139t133 -363t-134 -364t-347 -140zM588 -2q166 0 248 121.5t82 333.5q0 126 -30 224.5t-82.5 158t-119 90t-143.5 30.5q-161 0 -253.5 -126.5t-92.5 -331.5q0 -221 106.5 -360.5 t284.5 -139.5z" />
<glyph unicode="1" horiz-adv-x="704" d="M109 0q-6 0 -6 12.5t6 12.5q128 0 166 26t38 115v553q0 31 -1 51t-3 39t-7.5 28t-12 17.5t-19 8.5t-25.5 -1.5t-35.5 -9.5t-44.5 -17.5t-56 -25.5q-10 -3 -16 10q-5 9 3 12l299 146q7 4 13 -1.5t6 -12.5v-797q0 -48 6.5 -73t30 -41.5t61.5 -21.5t109 -5q5 0 5 -12.5 t-5 -12.5q-31 0 -116.5 2t-139.5 2q-53 0 -139 -2t-117 -2z" />
<glyph unicode="2" horiz-adv-x="919" d="M76 25q319 250 442 399.5t123 290.5q0 108 -60 169.5t-169 61.5q-218 0 -285 -252q-1 -3 -7.5 -3t-12.5 2.5t-5 6.5l78 301q2 6 17 2q6 -3 6 -6q-7 -36 2.5 -48.5t30.5 -12.5q14 0 89 23.5t144 23.5q132 0 210.5 -70t78.5 -182q0 -125 -118 -262.5t-419 -370.5 q-7 -6 -4 -10t12 -4q382 0 472 20t114 121q1 4 12 3.5t11 -5.5l-29 -200q0 -9 -5 -16t-13 -7h-701q-8 0 -14 9t0 16z" />
<glyph unicode="3" horiz-adv-x="909" d="M477 449q146 -3 231 -81.5t85 -193.5q0 -153 -174.5 -286.5t-514.5 -209.5q-4 -1 -7.5 5t-3.5 12.5t5 7.5q128 28 229 69t164 85.5t104 97t57 100t16 97.5q0 104 -68 179t-192 75q-97 0 -156 -29q-8 -5 -14.5 3.5t0.5 14.5q68 42 184 51q112 71 155.5 129.5t43.5 131.5 q0 101 -66.5 165t-192.5 64q-109 0 -176 -57.5t-104 -192.5q-1 -4 -7.5 -4.5t-12.5 2t-5 6.5l80 311q2 6 17 2q6 -3 6 -6q-12 -65 33 -65q15 0 100 26.5t156 26.5q122 0 203 -62t81 -165q0 -79 -59.5 -152.5t-196.5 -156.5z" />
<glyph unicode="4" horiz-adv-x="983" d="M879 88q9 0 9 -43t-9 -43q-59 4 -177 8v-268q0 -23 -16 -29l-70 -35q-20 -9 -20 13v321q-147 4 -551 4q-9 0 -14.5 8t0.5 17l635 942q8 8 22 4t14 -14v-889q55 0 177 4zM139 76q195 0 457 4v721l-467 -711q-5 -6 -2 -10t12 -4z" />
<glyph unicode="5" horiz-adv-x="886" d="M244 852q-28 0 -31 -29l-45 -254q594 -3 594 -342q0 -159 -145.5 -286t-477.5 -265q-8 -3 -13.5 8t1.5 15q148 62 251.5 125.5t160.5 125.5t81.5 120.5t24.5 122.5q0 152 -130 234.5t-376 82.5q-10 0 -16 8t-4 17l65 364q1 10 2.5 13.5t6.5 6t18 3.5q409 43 476 60 q49 12 60 35l7 17q2 4 8 5t10.5 -1.5t3.5 -7.5l-41 -131q-7 -25 -18.5 -31t-38.5 -6z" />
<glyph unicode="6" horiz-adv-x="1026" d="M670 602q139 0 208.5 -75.5t69.5 -186.5q0 -96 -58.5 -181t-157.5 -135.5t-212 -50.5q-181 0 -300.5 146t-119.5 373q0 133 45.5 257.5t131 227.5t219.5 174.5t299 93.5q5 1 8 -3.5t2.5 -10t-4.5 -6.5q-143 -28 -256.5 -97.5t-182.5 -164.5t-105 -205t-36 -226 q0 -135 43.5 -253.5t127 -193.5t188.5 -75q112 0 179.5 75.5t67.5 201.5q0 120 -57.5 190t-167.5 70q-62 0 -114 -23t-111 -78q-6 -6 -16 1.5t-7 13.5q55 69 137 105t179 36z" />
<glyph unicode="7" horiz-adv-x="974" d="M422 -211q-15 -33 -43 -49l-111 -64q-3 -2 -9 4.5t-5 10.5l569 1169q8 14 -8 14q-133 0 -217.5 -0.5t-164 -3.5t-122.5 -6t-83.5 -12t-57.5 -16.5t-33.5 -25.5t-22 -32.5t-14.5 -42.5q-1 -5 -7.5 -5.5t-12 2.5t-4.5 7l67 275q2 7 19 3q6 -3 6 -5q-7 -35 10 -44.5t86 -9.5 h615q9 0 14.5 -9.5t1.5 -16.5z" />
<glyph unicode="8" horiz-adv-x="1169" d="M672 750q50 -23 79.5 -37t74 -38.5t71 -45t58 -50t48.5 -59.5t29 -69t12 -82q0 -111 -66 -202.5t-175.5 -142.5t-237.5 -51q-194 0 -317 111.5t-123 263.5q0 128 89 234t222 168q-97 50 -147.5 104.5t-50.5 134.5q0 81 57 141.5t139.5 88.5t175.5 28q140 0 224 -64 t84 -161q0 -89 -69.5 -160t-176.5 -112zM338 1049q0 -30 9.5 -57.5t23.5 -49t39.5 -44t47.5 -38.5t59 -35.5t63 -32t69 -32.5q160 68 160 215q0 101 -73.5 168t-196.5 67q-95 0 -148 -42t-53 -119zM625 10q136 0 220.5 79t84.5 210q0 47 -12.5 89.5t-31 74.5t-51 63 t-61 51.5t-74 45t-76.5 39t-81.5 37.5t-77.5 36q-221 -111 -221 -329q0 -163 107 -279.5t274 -116.5z" />
<glyph unicode="9" horiz-adv-x="1026" d="M330 356q-51 0 -94.5 17t-72 45t-49 65t-29.5 76t-9 78q0 148 118.5 248t286.5 100q181 0 300.5 -145.5t119.5 -372.5q0 -110 -29 -215t-88 -199.5t-142 -170t-198.5 -127.5t-250.5 -70q-5 -2 -8 2.5t-3 10.5t4 7q147 29 263 101.5t187 171.5t107.5 213t36.5 235 q0 135 -43.5 253.5t-126.5 193.5t-188 75q-104 0 -163.5 -67t-59.5 -193q0 -120 52 -198t148 -78q62 0 113.5 22.5t112.5 77.5q6 6 15.5 -1t6.5 -13q-114 -142 -317 -142z" />
<glyph unicode=":" horiz-adv-x="399" d="M201 674q-37 0 -59.5 21t-22.5 57t22.5 56.5t59.5 20.5q38 0 59 -20t21 -57t-21 -57.5t-59 -20.5zM201 -23q-37 0 -59.5 21.5t-22.5 58.5q0 35 22.5 55.5t59.5 20.5q38 0 59 -20t21 -56q0 -37 -21 -58.5t-59 -21.5z" />
<glyph unicode=";" horiz-adv-x="454" d="M207 674q-38 0 -60 20.5t-22 57.5t22 57t60 20q37 0 57.5 -20t20.5 -57t-20.5 -57.5t-57.5 -20.5zM209 127q59 0 93 -44t34 -126q0 -80 -35.5 -147.5t-105.5 -135.5q-5 -4 -11 -1.5t-7.5 7.5t1.5 9q101 104 101 241q0 52 -21 84q-15 -30 -59 -30q-35 0 -54.5 19t-19.5 52 q0 72 84 72z" />
<glyph unicode="&#x3c;" horiz-adv-x="833" d="M758 227q15 -8 13 -52q-2 -32 -13 -30l-684 306q-10 5 -10 34t10 35l684 301q7 4 11 -10q8 -31 -3 -58q-4 -8 -8 -10l-602 -258z" />
<glyph unicode="=" horiz-adv-x="958" d="M70 590q-6 0 -8 19t-0.5 38t6.5 19h821q9 0 9 -38t-9 -38h-819zM70 301q-6 0 -8 19.5t-0.5 39t6.5 19.5h821q9 0 9 -39t-9 -39h-819z" />
<glyph unicode="&#x3e;" horiz-adv-x="833" d="M760 518q10 -6 10 -35t-10 -34l-684 -304q-8 -4 -12 13q-7 32 5 58q4 7 7 9l602 258l-602 256q-15 8 -13 53q2 32 13 29z" />
<glyph unicode="?" horiz-adv-x="669" d="M322 1255q-28 0 -47.5 -8t-29 -24.5t-13.5 -30.5t-7 -35q-7 -37 -22 -57.5t-47 -20.5q-28 0 -45 19.5t-17 44.5q0 56 70 96.5t166 40.5q117 0 192.5 -63.5t75.5 -182.5q0 -47 -11 -86t-37.5 -75.5t-42.5 -54.5t-54 -56q-73 -73 -102 -128.5t-29 -125.5q0 -48 12 -113 q1 -4 -4.5 -6.5t-11.5 -2t-7 4.5q-23 54 -38 126t-15 118q0 40 12.5 74t32 58.5t43.5 47.5t47.5 47t43 50.5t32 64t12.5 82.5q0 88 -44.5 142t-114.5 54zM315 -23q-37 0 -58 21.5t-21 58.5q0 35 21 55.5t58 20.5q38 0 59 -20t21 -56q0 -37 -21 -58.5t-59 -21.5z" />
<glyph unicode="@" horiz-adv-x="1468" d="M956 164q-66 0 -91.5 47t-12.5 127l25 129q-71 -138 -161 -223.5t-169 -85.5q-54 0 -82.5 38.5t-18.5 118.5q12 82 55.5 168t101 152t126 108.5t127.5 42.5q61 0 94 -41q23 23 29 56q6 6 30 1q7 -3 7 -5l-84 -459q-6 -41 -7.5 -71.5t16.5 -49t58 -18.5q93 0 170.5 95 t77.5 249q0 198 -145 336.5t-357 138.5q-116 0 -213.5 -45t-161.5 -121.5t-99 -176.5t-35 -210q0 -242 156.5 -390.5t408.5 -148.5q98 0 171.5 19.5t168.5 72.5q3 3 7 0t5.5 -8t-0.5 -8q-173 -135 -416 -135q-163 0 -294 64t-209 190t-78 293q0 184 94 335.5t243.5 233.5 t317.5 82q111 0 206 -37t159 -100.5t100.5 -148t36.5 -177.5q0 -113 -49 -214.5t-132 -162.5t-176 -61zM590 225q87 0 184 122.5t129 262.5q11 55 -13.5 91.5t-82.5 35.5q-80 -2 -164.5 -111t-107.5 -253q-11 -75 1.5 -111.5t53.5 -36.5z" />
<glyph unicode="A" horiz-adv-x="1429" d="M1421 25q7 0 7 -12.5t-7 -12.5q-38 0 -117 4t-116 4q-43 0 -109 -4t-102 -4q-9 0 -9 12.5t9 12.5q116 0 144.5 30.5t-9.5 116.5l-244 522h-391l-184 -442q-50 -126 -9 -176.5t183 -50.5q9 0 9 -12.5t-9 -12.5q-38 0 -112.5 4t-129.5 4q-50 0 -116 -4t-105 -4 q-9 0 -9 12.5t9 12.5q85 0 137.5 50t112.5 195l428 1030q3 6 13.5 6t11.5 -6l475 -1019q69 -152 118.5 -204t120.5 -52zM494 733h358l-190 406z" />
<glyph unicode="B" horiz-adv-x="1124" d="M666 723q160 -10 258 -106t98 -238q0 -167 -112 -277t-279 -110q-45 0 -150 6t-153 6q-47 0 -127.5 -2t-110.5 -2q-4 0 -4 12.5t4 12.5q117 0 151.5 26t34.5 115v948q0 89 -33 115t-149 26q-6 0 -6 12.5t6 12.5q28 0 107.5 -3t126.5 -3q36 0 123 6t116 6q170 0 251 -76.5 t81 -195.5q0 -99 -64 -175t-169 -116zM520 1260q-44 0 -64.5 -3t-40 -17.5t-26 -45t-6.5 -84.5v-389q55 -2 96 -2q161 0 235 76t74 204q0 54 -14.5 99.5t-44.5 82.5t-83.5 58t-125.5 21zM602 25q152 0 226.5 79t74.5 224q0 155 -95.5 252t-256.5 100q-76 3 -168 -4v-510 q0 -81 43.5 -111t175.5 -30z" />
<glyph unicode="C" horiz-adv-x="1370" d="M846 1303q101 0 202 -20t162 -56q17 -11 22.5 -19t6.5 -30l23 -215q0 -5 -11 -7t-12 5q-74 299 -473 299q-243 0 -391 -151t-148 -400q0 -192 84 -356t224 -258.5t301 -94.5q151 0 259.5 80t161.5 244q1 7 13 5t12 -7l-29 -220q-5 -26 -9.5 -33t-22.5 -14 q-184 -80 -392 -80q-151 0 -275 40.5t-207 107t-139.5 155t-82 183t-25.5 192.5q0 141 62.5 264t166 206.5t238.5 131.5t279 48z" />
<glyph unicode="D" horiz-adv-x="1409" d="M608 -8q-36 0 -142 6t-155 6q-47 0 -127 -2t-110 -2q-4 0 -4 12.5t4 12.5q117 0 150.5 26t33.5 115v948q0 89 -33 115t-149 26q-4 0 -4 12.5t4 12.5q30 0 109 -3t126 -3q45 0 140 5t129 5q215 0 382 -82t257 -223.5t90 -316.5q0 -150 -56.5 -277t-152 -212.5t-223 -133 t-269.5 -47.5zM588 18q264 0 426 157.5t162 440.5q0 134 -41 251t-115 203.5t-183 136.5t-239 50q-133 0 -182 -27.5t-49 -119.5v-922q0 -93 45 -131.5t176 -38.5z" />
<glyph unicode="E" horiz-adv-x="1091" d="M963 299q0 4 6 5t12 -1t6 -6q-18 -130 -18 -266q0 -17 -7 -24t-26 -7h-846q-4 0 -4 12.5t4 12.5q116 0 149 25.5t33 115.5v948q0 89 -33 115t-149 26q-4 0 -4 12.5t4 12.5h811q19 0 19 -18l4 -248q0 -6 -11.5 -6t-11.5 6q0 105 -55.5 166t-145.5 61h-141 q-114 0 -146 -25.5t-32 -113.5v-416h270q94 0 131 31.5t37 109.5q0 5 12.5 5t12.5 -5q0 -44 -1 -92t-1 -69q0 -30 2 -90t2 -95q0 -5 -12.5 -5t-12.5 5q0 92 -39 129t-137 37h-264v-473q0 -86 32 -110.5t146 -24.5h189q82 0 141 71.5t74 188.5z" />
<glyph unicode="F" horiz-adv-x="1036" d="M920 1262l4 -248q0 -6 -11.5 -6t-11.5 6q0 105 -55.5 166t-145.5 61h-141q-110 0 -144 -24.5t-34 -104.5v-450h223q105 0 148 32t43 109q0 5 12 5t12 -5q0 -44 -1 -92.5t-1 -69.5q0 -30 2 -89.5t2 -94.5q0 -5 -12 -5t-12 5q0 92 -44.5 129t-156.5 37h-215v-449 q0 -39 5.5 -63t20 -42.5t44.5 -27t73 -12.5t113 -4q6 0 6 -12.5t-6 -12.5q-40 0 -142 2t-167 2q-47 0 -127.5 -2t-110.5 -2q-4 0 -4 12.5t4 12.5q116 0 149 25.5t33 115.5v948q0 89 -33 115t-149 26q-4 0 -4 12.5t4 12.5h811q19 0 19 -18z" />
<glyph unicode="G" horiz-adv-x="1460" d="M827 -25q-168 0 -306.5 51t-230 139t-141 206.5t-49.5 253.5q0 198 101.5 353.5t279 240t400.5 84.5q216 0 338 -78q7 -5 11.5 -9t6.5 -9t2.5 -7.5t1 -10t0.5 -11.5l25 -215q0 -5 -12 -7t-13 5q-38 146 -153 222.5t-291 76.5q-271 0 -420.5 -150.5t-149.5 -413.5 q0 -148 49.5 -276t135.5 -218t206.5 -141t258.5 -51q83 0 133 9t87 36t51.5 75.5t14.5 127.5q0 55 -2 85.5t-11 58.5t-22.5 40t-43 21.5t-65 11.5t-95.5 2q-7 0 -10.5 8.5t-1 16.5t9.5 8q223 -16 450 -4q9 0 9.5 -14.5t-9.5 -14.5q-33 1 -51 -4t-31.5 -16t-18.5 -41.5 t-7 -68t-2 -109.5q0 -82 7 -129.5t7 -51.5q0 -11 -4 -15t-19 -9q-241 -58 -426 -58z" />
<glyph unicode="H" horiz-adv-x="1552" d="M1475 25q6 0 6 -12.5t-6 -12.5q-28 0 -108.5 2t-127.5 2q-51 0 -130.5 -2t-107.5 -2q-6 0 -6 12.5t6 12.5q118 0 150.5 25.5t32.5 115.5v481h-817v-481q0 -90 32 -115.5t150 -25.5q5 0 5 -12.5t-5 -12.5q-29 0 -108.5 2t-129.5 2q-47 0 -127 -2t-110 -2q-4 0 -4 12.5 t4 12.5q117 0 150.5 26t33.5 115v948q0 89 -33 115t-149 26q-4 0 -4 12.5t4 12.5q30 0 109 -3t126 -3q51 0 130.5 3t107.5 3q5 0 5 -12.5t-5 -12.5q-80 0 -117.5 -12.5t-51 -41.5t-13.5 -91v-424h817v424q0 90 -33.5 117.5t-149.5 27.5q-6 0 -6 12.5t6 12.5q28 0 107.5 -3 t130.5 -3q47 0 127.5 3t108.5 3q6 0 6 -12.5t-6 -12.5q-116 0 -150.5 -26.5t-34.5 -114.5v-948q0 -89 34 -115t151 -26z" />
<glyph unicode="I" horiz-adv-x="675" d="M393 166q0 -90 32 -115.5t150 -25.5q5 0 5 -12.5t-5 -12.5q-29 0 -108 2t-131 2q-48 0 -128 -2t-110 -2q-6 0 -6 12.5t6 12.5q117 0 151 26t34 115v948q0 88 -34.5 114.5t-150.5 26.5q-6 0 -6 12.5t6 12.5q30 0 110 -3t128 -3q52 0 132 3t107 3q5 0 5 -12.5t-5 -12.5 q-80 0 -117.5 -12.5t-51 -41.5t-13.5 -91v-944z" />
<glyph unicode="J" horiz-adv-x="651" d="M563 1280q5 0 5 -12.5t-5 -12.5q-101 0 -129 -27.5t-28 -117.5v-1180q0 -196 -89.5 -313t-261.5 -117q-67 0 -105 21.5t-38 56.5q0 28 15.5 44t43.5 16q30 0 51 -15.5t31.5 -34t30.5 -34t49 -15.5q80 0 121 89t41 284v1202q0 46 -7 71.5t-31 42.5t-62.5 22t-108.5 5 q-4 0 -4 12.5t4 12.5q37 0 124.5 -3t137.5 -3q47 0 118.5 3t96.5 3z" />
<glyph unicode="K" horiz-adv-x="1329" d="M1300 25q6 0 6 -12.5t-6 -12.5h-229q-66 0 -78 4q-19 7 -47 47q-91 129 -120 168q-29 38 -62 78l-326 403l-71 -69v-465q0 -90 32 -115.5t150 -25.5q5 0 5 -12.5t-5 -12.5q-29 0 -108.5 2t-129.5 2q-47 0 -127 -2t-110 -2q-4 0 -4 12.5t4 12.5q117 0 150.5 26t33.5 115 v948q0 89 -33 115t-149 26q-4 0 -4 12.5t4 12.5q30 0 109 -3t126 -3q51 0 130.5 3t107.5 3q5 0 5 -12.5t-5 -12.5q-80 0 -117.5 -12.5t-51 -41.5t-13.5 -91v-432l450 448q78 78 68.5 103.5t-117.5 25.5q-4 0 -4 12.5t4 12.5q27 0 98.5 -3t132.5 -3q56 0 119.5 3t85.5 3 q6 0 6 -12.5t-6 -12.5q-197 0 -340 -141l-348 -340l293 -368q51 -64 92.5 -114t76 -88.5t62.5 -66.5t52 -48t43.5 -32t37.5 -19t35 -9.5t34.5 -3.5t36.5 0h21z" />
<glyph unicode="L" horiz-adv-x="1085" d="M365 1112v-938q0 -86 32 -110.5t144 -24.5h262q201 0 239 260q0 4 6 5t11.5 -1t5.5 -6q-18 -162 -18 -266q0 -18 -6.5 -24.5t-24.5 -6.5h-942q-4 0 -4 12.5t4 12.5q116 0 149 25.5t33 115.5v948q0 89 -33 115t-149 26q-4 0 -4 12.5t4 12.5q30 0 109 -3t126 -3q50 0 130 3 t108 3q5 0 5 -12.5t-5 -12.5q-115 0 -148.5 -27t-33.5 -116z" />
<glyph unicode="M" horiz-adv-x="1699" d="M1653 25q6 0 6 -12.5t-6 -12.5q-30 0 -110 2t-128 2q-45 0 -116.5 -2t-96.5 -2q-4 0 -4 12.5t4 12.5q103 0 132.5 26t25.5 115l-35 952l-479 -1104q-3 -8 -16.5 -8t-18.5 8l-500 1096q0 1 -1 2t-1 2l-16 -901q-2 -106 34.5 -147t137.5 -41q5 0 5 -12.5t-5 -12.5 q-27 0 -93 2t-106 2q-35 0 -95 -2t-85 -2q-4 0 -4 12.5t4 12.5q87 0 123 42t37 146l20 971q-62 71 -166 71q-4 0 -4 12.5t4 12.5q22 0 65.5 -2t57.5 -2q21 0 53 2t37 2q28 0 45.5 -19t49.5 -87l460 -996l459 1051q10 23 27.5 37t34.5 14q3 0 29 -2t48 -2q38 0 86 2t70 2 q4 0 4 -12.5t-4 -12.5q-107 0 -151 -27.5t-41 -109.5l38 -952q3 -90 36 -115.5t149 -25.5z" />
<glyph unicode="N" horiz-adv-x="1484" d="M1432 1280q6 0 6 -12.5t-6 -12.5q-88 0 -124 -43t-36 -147v-1088q0 -4 -10 -5.5t-15 1.5l-925 1139q-24 28 -35 39v-938q0 -104 34.5 -146t120.5 -42q6 0 6 -12.5t-6 -12.5q-23 0 -80.5 2t-93.5 2q-35 0 -95 -2t-85 -2q-4 0 -4 12.5t4 12.5q88 0 121 41t33 147v981 q-71 61 -148 61q-6 0 -6 12.5t6 12.5q23 0 70.5 -2t66.5 -2q22 0 55 2t38 2q16 0 24 -7.5t27.5 -38.5t42.5 -60l809 -1006v897q0 105 -33 147.5t-119 42.5q-5 0 -5 12.5t5 12.5q25 0 82.5 -3t93.5 -3q33 0 95 3t86 3z" />
<glyph unicode="O" d="M750 -25q-191 0 -341 91t-229.5 242t-79.5 331q0 129 43 239t115 187t165.5 131.5t195 80.5t202.5 26q146 0 270 -55t205.5 -146.5t126.5 -208t45 -240.5q0 -140 -58 -266t-155 -216t-229 -143t-276 -53zM823 16q108 0 201.5 38.5t163 110.5t109.5 183t40 248 q0 192 -74 342t-211 234.5t-317 84.5q-237 0 -370.5 -146.5t-133.5 -401.5q0 -191 73 -348.5t209.5 -251t309.5 -93.5z" />
<glyph unicode="P" horiz-adv-x="1105" d="M381 174q0 -39 5.5 -63t20 -42.5t44.5 -27t73 -12.5t113 -4q6 0 6 -12.5t-6 -12.5q-40 0 -142 2t-167 2q-47 0 -127.5 -2t-110.5 -2q-4 0 -4 12.5t4 12.5q116 0 149 25.5t33 115.5v948q0 89 -33 115t-149 26q-4 0 -4 12.5t4 12.5q30 0 109.5 -3t126.5 -3q30 0 128.5 6 t157.5 6q87 0 159 -19.5t128 -59t87.5 -105t31.5 -152.5q0 -84 -27.5 -154t-72.5 -117t-104.5 -79.5t-122 -47.5t-126.5 -15q-61 0 -100 10q-5 1 -5.5 8t2.5 13t7 5q33 -8 74 -8q69 0 130.5 21t110.5 62t78 108.5t29 152.5q0 162 -93.5 256.5t-232.5 94.5q-43 0 -65.5 -1 t-47 -6t-35 -13.5t-20.5 -26t-13 -42t-3 -61.5v-936z" />
<glyph unicode="Q" d="M1526 -319q4 2 7 -3t3.5 -10.5t-2.5 -7.5q-112 -25 -176 -25q-139 0 -292 90.5t-265 251.5q-16 -2 -51 -2q-191 0 -341 91t-229.5 242t-79.5 331q0 129 43 239t115 187t165.5 131.5t195 80.5t202.5 26q146 0 270 -55t205.5 -146.5t126.5 -208t45 -240.5 q0 -232 -149 -412.5t-377 -240.5q88 -143 233.5 -234.5t276.5 -91.5q42 0 74 7zM231 709q0 -191 73 -348.5t209.5 -251t309.5 -93.5q108 0 201.5 38.5t163 110.5t109.5 183t40 248q0 192 -74 342t-211 234.5t-317 84.5q-237 0 -370.5 -146.5t-133.5 -401.5z" />
<glyph unicode="R" horiz-adv-x="1366" d="M1384 25q6 0 6 -12.5t-6 -12.5h-237q-54 0 -199.5 177.5t-351.5 490.5q-66 -17 -125 -17q-34 0 -88 4v-489q0 -90 32 -115.5t150 -25.5q6 0 6 -12.5t-6 -12.5q-29 0 -108 2t-129 2q-47 0 -127.5 -2t-110.5 -2q-4 0 -4 12.5t4 12.5q117 0 151.5 26t34.5 115v948 q0 89 -33 115t-149 26q-6 0 -6 12.5t6 12.5q28 0 107.5 -3t126.5 -3q36 0 123 6t116 6q162 0 248 -68t86 -188q0 -98 -57 -184.5t-152 -138.5q262 -386 411 -534t281 -148zM383 705q88 -9 123 -9q149 0 214.5 62.5t65.5 202.5q0 157 -72 228t-194 71q-44 0 -64.5 -3 t-40 -17.5t-26 -45t-6.5 -84.5v-405z" />
<glyph unicode="S" horiz-adv-x="993" d="M283 1032q0 -32 5.5 -60.5t20 -54.5t26.5 -45.5t39 -43t42 -36.5t51 -35.5t50.5 -31.5t55.5 -33q132 -77 179 -117q129 -106 129 -253q0 -149 -108 -248t-308 -99q-139 0 -279 70q-15 8 -18 39l-31 266q-2 6 3.5 8.5t12 1.5t7.5 -6q9 -64 33.5 -123.5t65.5 -111.5 t106 -83.5t145 -31.5q50 0 94 13t82 40.5t60 77t22 115.5q0 42 -9.5 79.5t-22.5 65.5t-39.5 58t-46 48.5t-57.5 44.5t-59 38.5t-65 38.5q-45 27 -63 38t-57 37t-56.5 43t-44.5 47t-39 56.5t-21.5 63.5t-9.5 77q0 77 31.5 139t84 100.5t117.5 58.5t136 20q110 0 233 -50 q31 -12 31 -34l18 -218q0 -9 -11.5 -9t-12.5 9q-3 38 -14 74.5t-34 73.5t-54.5 64.5t-78.5 45t-104 17.5q-64 0 -111.5 -21t-74 -57.5t-39 -77.5t-12.5 -88z" />
<glyph unicode="T" horiz-adv-x="1294" d="M369 1245q-129 0 -188 -61t-81 -219q0 -5 -12 -5t-12 5q8 56 18 177t10 183q0 9 12.5 9.5t12.5 -9.5q0 -45 109 -45q176 -6 411 -6q107 0 230 3t165 3q73 0 108.5 10.5t45.5 40.5q2 7 12.5 7t10.5 -7q-6 -58 -12.5 -187.5t-6.5 -178.5q0 -5 -12 -5t-12 5 q0 159 -53.5 219.5t-194.5 60.5q-48 0 -74.5 -1t-54.5 -3t-41 -8.5t-26 -15t-17.5 -24.5t-7 -35t-2.5 -48v-944q0 -48 6.5 -73t29.5 -41.5t61 -21.5t109 -5q5 0 5 -12.5t-5 -12.5q-32 0 -120 2t-144 2q-52 0 -140 -2t-122 -2q-5 0 -5 12.5t5 12.5q132 0 170.5 26t38.5 115 v948q0 20 -0.5 35.5t-5 28.5t-7 22t-12.5 16.5t-15.5 12t-23.5 8t-28.5 5t-37.5 2.5t-43.5 1h-53.5z" />
<glyph unicode="U" horiz-adv-x="1427" d="M1171 1065q0 98 -42.5 144t-131.5 46q-6 0 -6 12.5t6 12.5q27 0 92.5 -3t106.5 -3q33 0 95 3t87 3q4 0 4 -12.5t-4 -12.5q-83 0 -122 -46t-39 -144v-586q0 -239 -129.5 -372.5t-348.5 -133.5q-228 0 -363.5 133t-135.5 355v653q0 88 -33.5 114.5t-149.5 26.5 q-5 0 -5 12.5t5 12.5q30 0 109 -3t127 -3q50 0 129 3t106 3q6 0 6 -12.5t-6 -12.5q-115 0 -147.5 -27.5t-32.5 -117.5v-578q0 -240 112 -369.5t316 -129.5q187 0 291 118t104 326v588z" />
<glyph unicode="V" horiz-adv-x="1366" d="M1372 1280q6 0 6 -12.5t-6 -12.5q-69 0 -115.5 -29.5t-80.5 -111.5l-451 -1112q-3 -8 -21.5 -8t-23.5 8l-506 1108q-36 80 -75 112.5t-103 32.5q-6 0 -6 12.5t6 12.5q28 0 87 -3t87 -3q54 0 128.5 3t100.5 3q6 0 6 -12.5t-6 -12.5q-41 0 -67.5 -6t-42.5 -20t-15.5 -38.5 t17.5 -60.5l446 -985l396 981q30 71 -2 100t-146 29q-6 0 -6 12.5t6 12.5q28 0 91.5 -3t113.5 -3q40 0 94 3t88 3z" />
<glyph unicode="W" horiz-adv-x="1916" d="M1923 1280q6 0 6 -12.5t-6 -12.5q-70 0 -116.5 -29.5t-80.5 -111.5l-450 -1112q-3 -8 -21.5 -8t-23.5 8l-268 588l-238 -588q-3 -8 -21.5 -8t-23.5 8l-506 1108q-36 80 -75 112.5t-103 32.5q-6 0 -6 12.5t6 12.5q28 0 87 -3t87 -3q54 0 128.5 3t100.5 3q6 0 6 -12.5 t-6 -12.5q-84 0 -114 -27.5t2 -97.5l452 -976l199 489l-213 467q-36 80 -75 112.5t-103 32.5q-6 0 -6 12.5t6 12.5q27 0 87 -3t87 -3q39 0 90 3t68 3q6 0 6 -12.5t-6 -12.5q-66 0 -72.5 -20t31.5 -105l163 -352l142 348q29 70 11 99.5t-91 29.5q-5 0 -5 12.5t5 12.5 q19 0 61 -3t74 -3q39 0 93.5 3t88.5 3q4 0 4 -12.5t-4 -12.5q-70 0 -116.5 -29.5t-79.5 -111.5l-158 -389l264 -571l396 972q30 71 -3 100t-147 29q-6 0 -6 12.5t6 12.5q28 0 91.5 -3t113.5 -3q40 0 94 3t88 3z" />
<glyph unicode="X" horiz-adv-x="1337" d="M1296 25q4 0 4 -12.5t-4 -12.5q-25 0 -89.5 2t-102.5 2q-58 0 -140.5 -2t-113.5 -2q-4 0 -4 12.5t4 12.5q85 0 106 17.5t-10 61.5l-317 482l-285 -398q-57 -80 -35 -121.5t119 -41.5q6 0 6 -12.5t-6 -12.5q-32 0 -102 2t-127 2q-35 0 -82.5 -2t-75.5 -2q-6 0 -6 12.5 t6 12.5q140 0 260 163l309 424l-329 498q-54 79 -107 112t-127 33q-5 0 -5 12.5t5 12.5q25 0 77 -3t75 -3q59 0 149.5 3t120.5 3q6 0 6 -12.5t-6 -12.5q-84 0 -105 -18.5t9 -62.5l311 -467l260 366q63 89 45 135.5t-115 46.5q-6 0 -6 12.5t6 12.5q32 0 103 -3t127 -3 q35 0 82.5 3t75.5 3q6 0 6 -12.5t-6 -12.5q-140 0 -275 -184l-287 -391l340 -510q54 -81 110 -113t146 -32z" />
<glyph unicode="Y" horiz-adv-x="1243" d="M1251 1280q5 0 5 -12.5t-5 -12.5q-76 0 -147.5 -48t-128.5 -136l-289 -438v-467q0 -38 4 -60.5t13.5 -40t31 -25.5t51.5 -11.5t80 -3.5q6 0 6 -12.5t-6 -12.5q-28 0 -106.5 2t-128.5 2q-48 0 -129 -2t-109 -2q-6 0 -6 12.5t6 12.5q117 0 151 26t34 115v436l-351 508 q-54 80 -105.5 112.5t-125.5 32.5q-6 0 -6 12.5t6 12.5q24 0 75 -3t74 -3q59 0 151 3t122 3q4 0 4 -12.5t-4 -12.5q-85 0 -106.5 -18.5t10.5 -62.5l344 -494l262 397q114 178 -66 178q-4 0 -4 12.5t4 12.5q32 0 103 -3t127 -3q35 0 82 3t77 3z" />
<glyph unicode="Z" horiz-adv-x="1214" d="M111 27l831 1202q3 6 4.5 8.5t0.5 4.5t-4.5 2.5t-10.5 0.5q-439 0 -553 -12q-131 -13 -179 -60q-33 -32 -63 -120q-3 -9 -8 -25q-1 -4 -7.5 -4t-12.5 2.5t-5 5.5l82 309q2 7 19 1q6 -3 6 -5q-6 -36 16 -46.5t101 -10.5h747q9 0 15 -10.5t0 -16.5l-822 -1198 q-7 -11 -5 -13.5t16 -2.5h548q143 0 210 50.5t89 176.5q2 4 12.5 4t10.5 -4l-29 -250q0 -7 -5 -13.5t-13 -6.5q-305 4 -979 4q-9 0 -13.5 10t1.5 17z" />
<glyph unicode="[" horiz-adv-x="561" d="M193 -217v1681q0 14 3 17.5t15 3.5h272q6 0 6 -12.5t-6 -12.5q-84 0 -123.5 -12.5t-54 -41.5t-14.5 -91v-1385q0 -62 14.5 -91t54 -41.5t123.5 -12.5q6 0 6 -12.5t-6 -12.5h-272q-12 0 -15 4t-3 19z" />
<glyph unicode="\" horiz-adv-x="694" d="M567 -334l-514 1804q-2 3 4.5 8t16.5 9.5t21.5 7.5t19.5 3t10 -3l516 -1806q1 -3 -5.5 -7.5t-17 -8t-22 -6.5t-19.5 -3.5t-10 2.5z" />
<glyph unicode="]" horiz-adv-x="561" d="M369 -217q0 -15 -3.5 -19t-15.5 -4h-274q-4 0 -4 12.5t4 12.5q123 0 158.5 28t35.5 117v1385q0 89 -35.5 117t-158.5 28q-4 0 -4 12.5t4 12.5h274q12 0 15.5 -4t3.5 -17v-1681z" />
<glyph unicode="^" horiz-adv-x="802" d="M682 449q3 -6 -6 -11t-12 0l-263 371l-262 -371q-4 -4 -13 0.5t-7 10.5l260 509q1 10 21.5 10t23.5 -10z" />
<glyph unicode="_" horiz-adv-x="815" d="M70 -154q-6 0 -8 19.5t-0.5 39t6.5 19.5h677q9 0 9 -39t-9 -39h-675z" />
<glyph unicode="`" horiz-adv-x="561" d="M504 901q-235 103 -457 158q-17 3 24 24q58 30 84 30q3 0 5 -1q248 -141 352 -190q9 -4 2 -17q-4 -8 -10 -4z" />
<glyph unicode="a" horiz-adv-x="976" d="M938 111q6 3 11 -2t4.5 -11t-5.5 -10l-211 -100q-8 -4 -14 -4q-26 0 -46.5 40t-23.5 109l-159 -82q-127 -65 -193 -65q-58 0 -97.5 32.5t-39.5 94.5q0 58 42.5 92t155.5 78l291 114v293q0 125 -38 182.5t-121 57.5q-87 0 -141 -64t-66 -147q-4 -27 -21.5 -47.5 t-50.5 -20.5q-26 0 -43.5 18t-17.5 38q0 50 69 114t169 110t181 46q84 0 134.5 -56.5t50.5 -168.5v-531q0 -76 15 -108.5t54 -32.5q38 0 111 31zM479 74l174 84v215l-276 -113q-43 -16 -63.5 -39.5t-20.5 -68.5q0 -101 90 -101q43 0 96 23z" />
<glyph unicode="b" horiz-adv-x="1005" d="M629 532q143 -12 222 -72t79 -169q0 -133 -105.5 -216t-271.5 -83q-32 0 -129.5 6t-140.5 6q-39 0 -111 -2t-98 -2q-4 0 -4 12.5t4 12.5q103 0 132.5 26t29.5 115v627q0 88 -29.5 114.5t-130.5 26.5q-4 0 -4 12t4 12q26 0 97 -3t110 -3q34 0 110.5 6.5t116.5 6.5 q146 0 227.5 -54t81.5 -151q0 -77 -51.5 -138.5t-138.5 -89.5zM457 938q-72 0 -95.5 -29t-23.5 -121v-258q18 -2 98 -2q55 0 94 4t75 16t57.5 33t34 56t12.5 84q0 113 -63 165t-189 52zM518 25q297 0 297 219q0 118 -88.5 185t-271.5 67q-78 0 -117 -4v-326q0 -78 36 -109.5 t144 -31.5z" />
<glyph unicode="c" horiz-adv-x="1105" d="M639 983q78 0 167 -15.5t144 -43.5q14 -6 18.5 -12.5t6.5 -22.5l22 -211q0 -6 -11.5 -7.5t-12.5 5.5q-28 143 -127.5 211.5t-253.5 68.5q-168 0 -280.5 -126t-112.5 -316q0 -95 28.5 -184.5t82.5 -164t142.5 -120t196.5 -45.5q130 0 219.5 71t122.5 216q1 7 13 5.5 t12 -7.5l-29 -217q-2 -18 -6.5 -24t-22.5 -13q-160 -56 -327 -56q-119 0 -216 32.5t-158.5 84t-103.5 120t-59.5 136t-17.5 135.5q0 213 161.5 356.5t401.5 143.5z" />
<glyph unicode="d" horiz-adv-x="1163" d="M559 -8q-38 0 -133.5 6t-140.5 6q-40 0 -112.5 -2t-98.5 -2q-4 0 -4 12.5t4 12.5q103 0 132.5 26t29.5 115v627q0 88 -29.5 114.5t-130.5 26.5q-4 0 -4 12t4 12q26 0 97.5 -3t111.5 -3q41 0 125.5 5.5t124.5 5.5q259 0 405.5 -134t146.5 -344q0 -215 -148 -354t-380 -139 zM535 16q201 0 314.5 116t113.5 331q0 98 -26 182t-78 150.5t-139.5 104.5t-201.5 38q-100 0 -140 -32.5t-40 -117.5v-600q0 -47 8 -77t29 -52.5t60 -32.5t100 -10z" />
<glyph unicode="e" horiz-adv-x="892" d="M827 111q5 3 12 -6t3 -15q-146 -115 -318 -115q-108 0 -195.5 41.5t-141.5 110.5t-82.5 155t-28.5 179q0 218 145.5 370t360.5 152q117 0 183 -63.5t66 -169.5q0 -25 -5 -35t-19 -10l-592 -3q-22 -80 -22 -174q0 -137 46.5 -246.5t137.5 -175t213 -65.5q141 0 237 70z M512 942q-100 0 -176 -56.5t-113 -158.5l486 8q1 98 -53 152.5t-144 54.5z" />
<glyph unicode="f" horiz-adv-x="878" d="M803 942q0 -36 2 -119t2 -106q0 -6 -12.5 -6t-12.5 6q0 96 -55 155.5t-145 59.5h-70q-112 0 -144 -26.5t-32 -114.5v-306q118 1 203.5 6t122 10t38.5 5q11 0 11 -43q0 -45 -11 -45q-2 0 -38.5 5.5t-122 11.5t-203.5 7v-268q0 -39 5 -63t16.5 -42.5t36 -27t59 -12.5 t90.5 -4q6 0 6 -12.5t-6 -12.5q-34 0 -120.5 2t-139.5 2q-35 0 -104.5 -2t-104.5 -2q-4 0 -4 12.5t4 12.5q101 0 129 25.5t28 115.5v627q0 89 -28.5 115t-128.5 26q-4 0 -4 12t4 12h708q21 0 21 -16z" />
<glyph unicode="g" horiz-adv-x="1142" d="M610 -25q-124 0 -227 41.5t-169 110.5t-102 156t-36 180q0 241 160 380.5t430 139.5q185 0 290 -63q17 -11 21 -46l22 -192q0 -5 -11.5 -7t-12.5 5q-38 148 -127.5 212t-231.5 64q-189 0 -303 -125.5t-114 -341.5q0 -218 125 -352.5t335 -134.5q83 0 128 8.5t73.5 38.5 t36.5 76.5t8 132.5q0 33 -3.5 50.5t-13 31.5t-33.5 19t-56 7.5t-90 2.5q-7 0 -10.5 8t-1 16t9.5 8q181 -13 378 -4q9 0 9.5 -14t-9.5 -14q-61 1 -73.5 -19t-12.5 -112q0 -82 4.5 -130t4.5 -51v-5t-0.5 -3.5l-1 -3t-2 -2.5t-2.5 -2t-3 -2t-3.5 -1.5t-5 -2t-5.5 -2.5 q-133 -58 -375 -58z" />
<glyph unicode="h" horiz-adv-x="1269" d="M1196 25q4 0 4 -12.5t-4 -12.5q-26 0 -98.5 2t-112.5 2q-44 0 -115 -2t-96 -2q-6 0 -6 12.5t6 12.5q101 0 129.5 25.5t28.5 115.5v301h-594v-301q0 -90 28 -115.5t130 -25.5q6 0 6 -12.5t-6 -12.5q-25 0 -96 2t-115 2q-40 0 -112.5 -2t-98.5 -2q-4 0 -4 12.5t4 12.5 q103 0 132.5 26t29.5 115v627q0 88 -29.5 114.5t-130.5 26.5q-4 0 -4 12t4 12q26 0 97.5 -3t111.5 -3q44 0 115.5 3t95.5 3q6 0 6 -12t-6 -12q-98 0 -128 -28.5t-30 -117.5v-288h594v288q0 89 -29 117.5t-129 28.5q-6 0 -6 12t6 12q25 0 96 -3t115 -3q40 0 112.5 3t98.5 3 q4 0 4 -12t-4 -12q-102 0 -132 -26.5t-30 -114.5v-627q0 -89 29.5 -115t132.5 -26z" />
<glyph unicode="i" horiz-adv-x="595" d="M352 166q0 -90 28 -115.5t130 -25.5q6 0 6 -12.5t-6 -12.5q-25 0 -96.5 2t-116.5 2q-40 0 -112.5 -2t-98.5 -2q-4 0 -4 12.5t4 12.5q102 0 131 25.5t29 115.5v627q0 89 -29 115t-131 26q-4 0 -4 12t4 12q26 0 98.5 -3t112.5 -3q46 0 117.5 3t95.5 3q6 0 6 -12t-6 -12 q-98 0 -128 -28.5t-30 -117.5v-622z" />
<glyph unicode="j" horiz-adv-x="546" d="M236 45v748q0 88 -30 114.5t-132 26.5q-4 0 -4 12t4 12q26 0 98.5 -3t112.5 -3q46 0 117.5 3t95.5 3q6 0 6 -12t-6 -12q-98 0 -128 -28.5t-30 -117.5v-647q0 -153 -25 -247t-81.5 -155.5t-161.5 -109.5q-3 -1 -7 4t-5 10t1 7q84 43 129.5 145.5t45.5 249.5z" />
<glyph unicode="k" horiz-adv-x="1099" d="M1077 25q6 0 6 -12.5t-6 -12.5h-200q-63 0 -72 4q-14 6 -35 40q-75 127 -176 253l-164 207l-92 -88v-250q0 -90 28 -115.5t130 -25.5q6 0 6 -12.5t-6 -12.5q-25 0 -96 2t-115 2q-40 0 -112.5 -2t-98.5 -2q-4 0 -4 12.5t4 12.5q103 0 132.5 26t29.5 115v627 q0 88 -29.5 114.5t-130.5 26.5q-4 0 -4 12t4 12q26 0 97.5 -3t111.5 -3q44 0 115.5 3t95.5 3q6 0 6 -12t-6 -12q-98 0 -128 -28.5t-30 -117.5v-329l344 346q35 35 52 54t26.5 36t-1 24t-33.5 11t-67 4q-6 0 -6 12t6 12q25 0 84 -3t121 -3q59 0 117.5 3t65.5 3q6 0 6 -12 t-6 -12q-68 0 -155.5 -32.5t-166.5 -108.5l-223 -220l133 -167q184 -236 232 -287q66 -71 124 -86q31 -8 86 -8z" />
<glyph unicode="l" horiz-adv-x="946" d="M338 791v-617q0 -87 29 -115t125 -28h163q105 0 162.5 65.5t73.5 179.5q0 3 6 3.5t12 -1.5t6 -6q-14 -88 -14 -241q0 -17 -7 -24t-24 -7h-796q-4 0 -4 12.5t4 12.5q101 0 129 25.5t28 115.5v627q0 89 -28.5 115t-128.5 26q-4 0 -4 12t4 12q26 0 97.5 -3t111.5 -3 q44 0 115.5 3t95.5 3q4 0 4 -12t-4 -12q-100 0 -128 -27t-28 -116z" />
<glyph unicode="m" horiz-adv-x="1804" d="M1790 25q4 0 4 -12.5t-4 -12.5q-24 0 -94.5 2t-116.5 2q-43 0 -113 -2t-94 -2q-4 0 -4 12.5t4 12.5q100 0 129 26t29 115v438q0 167 -57.5 247.5t-176.5 80.5q-175 0 -319 -166q8 -62 8 -100v-500q0 -90 28 -115.5t130 -25.5q5 0 5 -12.5t-5 -12.5q-24 0 -94.5 2 t-116.5 2q-43 0 -113 -2t-94 -2q-5 0 -5 12.5t5 12.5q100 0 130 26t30 115v438q0 167 -58.5 247.5t-177.5 80.5q-167 0 -311 -156v-610q0 -90 28 -115.5t130 -25.5q6 0 6 -12.5t-6 -12.5q-24 0 -94.5 2t-116.5 2q-42 0 -112 -2t-93 -2q-6 0 -6 12.5t6 12.5q98 0 127 26 t29 115v627q0 88 -30 114.5t-132 26.5q-4 0 -4 12t4 12q22 0 66 -1t69 -1q19 0 48 1t42 1q26 0 32.5 -6.5t6.5 -31.5v-115q95 95 181.5 137.5t180.5 42.5q217 0 271 -194q98 103 188 148.5t187 45.5q134 0 209 -79.5t75 -239.5v-500q0 -90 29 -115.5t131 -25.5z" />
<glyph unicode="n" horiz-adv-x="1224" d="M1210 25q4 0 4 -12.5t-4 -12.5q-23 0 -87 2t-101 2q-46 0 -117.5 -2t-95.5 -2q-5 0 -5 12.5t5 12.5q102 0 133 28t31 117v408q0 83 -13.5 145t-37.5 101.5t-60 64t-77 34t-93 9.5q-94 0 -175 -37.5t-175 -130.5v-594q0 -89 29 -117t129 -28q6 0 6 -12.5t-6 -12.5 q-25 0 -96.5 2t-116.5 2q-42 0 -114.5 -2t-98.5 -2q-4 0 -4 12.5t4 12.5q103 0 134.5 26t31.5 115v627q0 88 -29.5 114.5t-130.5 26.5q-6 0 -6 12t6 12q22 0 65.5 -1t67.5 -1q21 0 50 1t42 1q25 0 31 -6.5t6 -31.5v-121q193 184 397 184q152 0 244 -84.5t92 -249.5v-483 q0 -89 24.5 -115t110.5 -26z" />
<glyph unicode="o" horiz-adv-x="1185" d="M563 -25q-108 0 -200.5 40.5t-154.5 108.5t-97 158t-35 189q0 98 33.5 182.5t90 144t129 102t150 63t154.5 20.5q87 0 164 -27.5t133.5 -75t97.5 -109.5t61.5 -132.5t20.5 -142.5q0 -139 -74 -259.5t-200 -191t-273 -70.5zM618 16q170 0 271.5 113t101.5 313 q0 101 -27.5 190.5t-79.5 159t-134.5 110t-184.5 40.5q-176 0 -273 -112.5t-97 -309.5q0 -139 48.5 -252t146 -182.5t228.5 -69.5z" />
<glyph unicode="p" horiz-adv-x="942" d="M336 174q0 -39 5 -63t16.5 -42.5t36 -27t59 -12.5t90.5 -4q6 0 6 -12.5t-6 -12.5q-34 0 -120 2t-138 2q-40 0 -112.5 -2t-98.5 -2q-4 0 -4 12.5t4 12.5q101 0 129 25.5t28 115.5v627q0 89 -28.5 115t-128.5 26q-4 0 -4 12t4 12q26 0 97.5 -3t111.5 -3q35 0 120.5 6.5 t116.5 6.5q324 0 332 -254q3 -73 -27.5 -131.5t-81 -92.5t-108 -51.5t-115.5 -17.5q-59 0 -100 8q-5 1 -6 8t2 13.5t8 5.5q44 -7 74 -7q98 0 166.5 58t68.5 166q0 130 -71.5 199t-190.5 69q-44 0 -64.5 -3t-39.5 -17.5t-25 -45t-6 -84.5v-614z" />
<glyph unicode="q" horiz-adv-x="1185" d="M1233 -322q4 1 7 -4t3.5 -9.5t-2.5 -6.5q-112 -25 -176 -25q-118 0 -246 91.5t-217 252.5q-14 -2 -39 -2q-108 0 -200.5 40.5t-154.5 108.5t-97 158t-35 189q0 98 33.5 182.5t90 144t129 102t150 63t154.5 20.5q87 0 164 -27.5t133.5 -75t97.5 -109.5t61.5 -132.5 t20.5 -142.5q0 -166 -104 -301.5t-267 -190.5q75 -145 193.5 -238.5t226.5 -93.5q47 0 74 6zM195 520q0 -139 48.5 -252t146 -182.5t228.5 -69.5q170 0 271.5 113t101.5 313q0 101 -27.5 190.5t-79.5 159t-134.5 110t-184.5 40.5q-176 0 -273 -112.5t-97 -309.5z" />
<glyph unicode="r" horiz-adv-x="1085" d="M1100 25q4 0 4 -12.5t-4 -12.5h-215q-38 0 -136 123t-235 340q-54 -8 -86 -8q-28 0 -90 4v-293q0 -90 28 -115.5t130 -25.5q6 0 6 -12.5t-6 -12.5q-25 0 -95.5 2t-115.5 2q-39 0 -112 -2t-99 -2q-4 0 -4 12.5t4 12.5q103 0 132.5 26t29.5 115v627q0 88 -29.5 114.5 t-130.5 26.5q-4 0 -4 12t4 12q26 0 98 -3t111 -3q36 0 120 6.5t119 6.5q126 0 192 -51t66 -148q0 -83 -46 -153.5t-124 -112.5q172 -276 272.5 -375.5t215.5 -99.5zM338 498q43 -9 104 -9q129 0 180.5 56.5t51.5 165.5q0 227 -205 227q-82 0 -106.5 -34.5t-24.5 -115.5v-290 z" />
<glyph unicode="s" horiz-adv-x="788" d="M227 788q0 -39 14.5 -73.5t33 -57.5t55.5 -49.5t62.5 -40.5t72.5 -39q48 -25 74.5 -39.5t65.5 -42.5t59 -54t35.5 -64t15.5 -82q0 -115 -91 -193t-247 -78q-129 0 -232 70q-15 8 -18 39l-25 195q-1 6 5 8.5t12.5 1.5t7.5 -6q22 -119 106 -199t189 -80q34 0 64.5 9 t58.5 29t44.5 56t16.5 84q0 41 -14.5 78t-34 62t-55.5 52.5t-62.5 43t-70.5 39.5q-42 23 -62 35t-54.5 34.5t-52 41.5t-37 45.5t-28 57t-8.5 66.5q0 116 86.5 181t210.5 65q93 0 192 -47q19 -10 24.5 -15t6.5 -18l17 -174q0 -9 -12 -10.5t-13 6.5q-14 89 -85.5 160 t-166.5 71q-75 0 -117.5 -47t-42.5 -121z" />
<glyph unicode="t" horiz-adv-x="765" d="M723 94q5 3 10 -0.5t5.5 -9.5t-3.5 -10q-83 -54 -145.5 -76.5t-128.5 -22.5q-55 0 -100 14t-83 45t-59.5 88t-21.5 136v537q0 75 -17.5 93.5t-89.5 18.5q-6 0 -6 12.5t6 12.5q78 0 128 42t50 109q0 6 15.5 6t15.5 -6v-149q124 0 381 18q14 0 14 -43q0 -12 -3.5 -26 t-8 -23t-8.5 -8q-180 46 -375 49v-573q0 -149 56.5 -219t176.5 -70q109 0 191 55z" />
<glyph unicode="u" horiz-adv-x="1269" d="M1196 958q4 0 4 -12t-4 -12q-103 0 -134.5 -26.5t-31.5 -114.5v-627q0 -89 29.5 -115t130.5 -26q6 0 6 -12.5t-6 -12.5q-22 0 -65.5 1t-67.5 1q-21 0 -50 -1t-42 -1q-25 0 -31 6.5t-6 32.5v121q-101 -96 -196.5 -140.5t-199.5 -44.5q-149 0 -243 77.5t-94 207.5v533 q0 88 -25 114.5t-111 26.5q-5 0 -5 12t5 12q23 0 87 -3t100 -3q46 0 118.5 3t96.5 3q5 0 5 -12t-5 -12q-102 0 -133 -28.5t-31 -117.5v-454q0 -307 283 -307q93 0 174.5 38t173.5 128v595q0 90 -29.5 118t-130.5 28q-4 0 -4 12t4 12q26 0 98 -3t117 -3q42 0 114.5 3t98.5 3z " />
<glyph unicode="v" horiz-adv-x="1046" d="M1055 958q5 0 5 -12t-5 -12q-62 0 -101.5 -29t-72.5 -112l-314 -791q-3 -8 -22.5 -8t-22.5 8l-370 786q-41 86 -71.5 116t-84.5 30q-6 0 -6 12t6 12q24 0 75 -3t74 -3q46 0 112.5 3t90.5 3q4 0 4 -12t-4 -12q-149 0 -90 -125l326 -674l258 670q26 71 -2.5 100t-124.5 29 q-6 0 -6 12t6 12q26 0 81.5 -3t98.5 -3q35 0 82.5 3t77.5 3z" />
<glyph unicode="w" horiz-adv-x="1464" d="M1470 958q6 0 6 -12t-6 -12q-61 0 -100.5 -29t-71.5 -112l-313 -791q-5 -8 -24 -8t-23 8l-201 428l-170 -428q-3 -8 -22.5 -8t-22.5 8l-370 786q-41 86 -71.5 116t-84.5 30q-6 0 -6 12t6 12q24 0 75 -3t74 -3q33 0 82.5 3t67.5 3q5 0 5 -12t-5 -12q-22 0 -38 -11t-21 -39 t18 -75l332 -684l131 348l-150 315q-44 91 -68 118.5t-75 27.5q-4 0 -4 12t4 12q23 0 68.5 -3t70.5 -3q30 0 70 3t55 3q4 0 4 -12t-4 -12q-29 0 -41.5 -2.5t-14 -17.5t7 -36t30.5 -69l104 -215l78 211q29 75 22.5 102t-53.5 27q-5 0 -5 12t5 12q13 0 40 -3t46 -3 q35 0 82.5 3t75.5 3q6 0 6 -12t-6 -12q-61 0 -100.5 -29t-71.5 -112l-96 -246l204 -422l256 680q25 71 5 100t-84 29q-4 0 -4 12t4 12q20 0 62 -3t73 -3q35 0 82 3t75 3z" />
<glyph unicode="x" horiz-adv-x="1011" d="M983 25q5 0 5 -12.5t-5 -12.5q-21 0 -64.5 2t-62.5 2q-49 0 -116.5 -2t-90.5 -2q-6 0 -6 12.5t6 12.5q65 0 73.5 14t-26.5 65l-217 326l-188 -276q-24 -35 -33.5 -56.5t-4.5 -39t34.5 -25.5t85.5 -8q6 0 6 -12.5t-6 -12.5q-28 0 -91.5 2t-113.5 2q-29 0 -69.5 -2 t-65.5 -2q-5 0 -5 12.5t5 12.5q52 0 111.5 36t109.5 105l207 291l-221 331q-52 78 -107.5 112t-101.5 34q-5 0 -5 12t5 12q21 0 64 -3t63 -3q48 0 116 3t91 3q5 0 5 -12t-5 -12q-65 0 -74 -15t24 -67l209 -309l178 262q25 37 34.5 58.5t4 39t-35.5 24.5t-87 7q-6 0 -6 12 t6 12q28 0 91.5 -3t113.5 -3q29 0 69.5 3t65.5 3q4 0 4 -12t-4 -12q-119 0 -221 -141l-196 -275l233 -348q52 -78 107.5 -111.5t101.5 -33.5z" />
<glyph unicode="y" horiz-adv-x="1046" d="M1055 958q5 0 5 -12t-5 -12q-62 0 -101.5 -29t-72.5 -112l-314 -791q-45 -117 -116.5 -208.5t-149.5 -129.5q-6 -2 -22 9t-25 28q-8 14 -11.5 30.5t-3 27.5t4.5 12q100 17 171 65.5t115 151.5l-378 800q-41 86 -71.5 116t-84.5 30q-6 0 -6 12t6 12q24 0 75 -3t74 -3 q46 0 112.5 3t90.5 3q4 0 4 -12t-4 -12q-149 0 -90 -125l330 -680l254 676q26 71 -2.5 100t-124.5 29q-6 0 -6 12t6 12q26 0 81.5 -3t98.5 -3q35 0 82.5 3t77.5 3z" />
<glyph unicode="z" horiz-adv-x="927" d="M82 27l594 886q8 11 6.5 14t-16.5 3h-203.5t-132.5 -7.5t-92 -15t-49 -32.5t-37.5 -48.5t-27.5 -75.5q-5 -13 -7 -20q-2 -8 -17 -2q-8 3 -6 6l72 285q2 7 16 2q8 -2 6 -6q-5 -36 17.5 -47t101.5 -11h488q9 0 14.5 -9t-0.5 -17l-588 -881q-5 -7 -6 -11t2.5 -5.5t11.5 -1.5 h312q67 0 109 5.5t74.5 17t52 37t32.5 59.5t25 90q2 6 13 6t11 -6l-22 -226q0 -7 -5.5 -13.5t-13.5 -6.5l-723 4q-9 0 -13.5 10t1.5 17z" />
<glyph unicode="{" horiz-adv-x="591" d="M66 610q-6 0 -6 13.5t6 13.5q45 5 78 34.5t51 70t28.5 102t13.5 115t3 124.5q0 107 7.5 174.5t24 115t50 70.5t77 32.5t113.5 9.5q8 0 8 -12.5t-8 -12.5q-78 0 -121.5 -56.5t-46.5 -160.5q-2 -117 -4 -169t-6.5 -126.5t-13.5 -104t-23.5 -71.5t-38.5 -62t-55.5 -42 t-77.5 -43q149 -68 181 -172t38 -451q3 -104 46.5 -160.5t121.5 -56.5q8 0 8 -12.5t-8 -12.5q-60 0 -99.5 6t-71.5 23.5t-50 44t-30.5 74t-16.5 107.5t-4 149q0 72 -3 126t-13.5 115t-28.5 101.5t-51 69.5t-78 34z" />
<glyph unicode="|" horiz-adv-x="344" d="M137 -293v1575q0 14 38 14t38 -14v-1575q0 -13 -38 -13t-38 13z" />
<glyph unicode="}" horiz-adv-x="579" d="M514 610q-45 -5 -78 -34t-51 -69.5t-28.5 -101.5t-13.5 -115t-3 -126q0 -89 -4 -149t-16.5 -107.5t-30.5 -74t-50 -44t-71.5 -23.5t-99.5 -6q-8 0 -8 12.5t8 12.5q78 0 121.5 56.5t46.5 160.5q6 347 38 451t181 172q-46 21 -77.5 43t-55.5 42t-38.5 62t-23.5 71.5 t-13.5 104t-6.5 126.5t-4 169q-3 104 -46.5 160.5t-121.5 56.5q-8 0 -8 12.5t8 12.5q59 0 98 -5.5t71.5 -22.5t50.5 -43.5t30.5 -73.5t17 -107.5t4.5 -149.5q0 -71 3 -124.5t13.5 -115t28.5 -102t51 -70t78 -34.5q6 0 6 -13.5t-6 -13.5z" />
<glyph unicode="~" horiz-adv-x="907" d="M641 483q41 0 73 13.5t46.5 27t36.5 39.5q5 3 11.5 -3.5t2.5 -10.5q-70 -84 -114.5 -112.5t-98.5 -28.5q-59 0 -164 36.5t-168 36.5q-20 0 -37 -3.5t-26.5 -5.5t-25.5 -13.5t-19 -14t-22.5 -21.5t-22.5 -22q-2 -2 -6.5 0.5t-7.5 7.5t-1 9q119 141 228 141q43 0 148 -38 t167 -38z" />
<glyph unicode="&#xa1;" horiz-adv-x="497" d="M250 748q37 0 58.5 -21t21.5 -59q0 -35 -21.5 -55.5t-58.5 -20.5q-38 0 -59 20t-21 56q0 38 21 59t59 21zM330 -547q0 -3 -11 -6.5t-30.5 -6.5t-38.5 -3t-39 2.5t-32 6.5t-11 7q47 267 74 885q0 4 11 4t11 -4q18 -595 66 -885z" />
<glyph unicode="&#xa2;" horiz-adv-x="1105" d="M991 287q1 7 13 5.5t12 -7.5l-29 -217q-2 -18 -6.5 -24t-22.5 -13q-160 -56 -327 -56h-23v-184q0 -13 -20.5 -13t-20.5 13v186q-105 8 -190.5 44.5t-140.5 87.5t-92 116.5t-52.5 129.5t-15.5 128q0 196 139 335t352 161v170q0 15 20.5 15t20.5 -15v-166h31 q78 0 167 -15.5t144 -43.5q14 -6 18.5 -12.5t6.5 -22.5l22 -211q0 -6 -11.5 -7.5t-12.5 5.5q-27 138 -123 207.5t-242 72.5v-954q14 -2 41 -2q130 0 219.5 71t122.5 216zM199 514q0 -116 39.5 -221t125 -185t203.5 -102v950q-159 -11 -263.5 -135.5t-104.5 -306.5z" />
<glyph unicode="&#xa3;" horiz-adv-x="884" d="M754 252q0 3 6 3.5t12 -1t6 -4.5q-18 -103 -18 -219q0 -17 -7 -24t-24 -7h-655q-4 0 -4 12t4 13q92 25 129 57q51 43 51 135q0 105 -39 234h-102q-13 0 -13 20.5t13 20.5h88q-35 115 -35 190q0 76 27.5 135.5t75.5 94.5t107.5 53t127.5 18q96 0 184 -35q30 -9 33 -39 l14 -204q0 -9 -10.5 -9t-13.5 9q-3 44 -18.5 86.5t-42 80.5t-71 61t-98.5 23q-109 0 -160 -61.5t-51 -149.5q0 -23 2.5 -47t5 -41t9 -44.5t9 -38t12 -43t11.5 -39.5h242q13 0 13 -20.5t-13 -20.5h-229q20 -78 20 -150q0 -80 -28.5 -129.5t-79.5 -89.5h270q130 0 173.5 31 t66.5 139z" />
<glyph unicode="&#xa4;" horiz-adv-x="847" d="M739 127l-53 -51l-98 110q-83 -53 -187 -53q-89 0 -153 45l-90 -102l-43 43l90 94q-38 39 -59 92.5t-21 108.5q0 113 82 188l-103 103l54 47l102 -111q80 45 172 45q90 0 164 -49l100 108l41 -40l-100 -103q78 -78 78 -190q0 -106 -76 -185zM440 166q77 0 122.5 53.5 t45.5 149.5q0 114 -60.5 199t-162.5 85q-73 0 -116.5 -49.5t-43.5 -146.5q0 -71 21.5 -135t72 -110t121.5 -46z" />
<glyph unicode="&#xa5;" horiz-adv-x="976" d="M952 958q6 0 6 -12t-6 -12q-67 0 -131.5 -47.5t-118.5 -136.5l-170 -277v-37h218q14 0 14 -20.5t-14 -20.5h-543q-15 0 -15 20.5t15 20.5h221v2l-229 350q-55 82 -99 114t-110 32q-4 0 -4 12t4 12q20 0 63.5 -3t63.5 -3q54 0 134.5 3t106.5 3q6 0 6 -12t-6 -12 q-123 0 -71 -82l231 -350l146 250q48 85 32 133.5t-78 48.5q-6 0 -6 12t6 12q28 0 89 -3t112 -3q30 0 70 3t63 3zM750 319q14 0 14 -20t-14 -20h-218v-113q0 -48 5.5 -73t26.5 -41.5t54.5 -21.5t96.5 -5q5 0 5 -12.5t-5 -12.5q-29 0 -107 2t-129 2q-44 0 -124 -2t-111 -2 q-4 0 -4 12.5t4 12.5q117 0 150.5 26t33.5 115v113h-221q-15 0 -15 20t15 20h543z" />
<glyph unicode="&#xa6;" horiz-adv-x="344" d="M137 631v651q0 14 38 14t38 -14v-651q0 -15 -38 -15t-38 15zM137 -293v629q0 14 38 14t38 -14v-629q0 -13 -38 -13t-38 13z" />
<glyph unicode="&#xa7;" horiz-adv-x="878" d="M637 131q82 -75 82 -174q0 -68 -26.5 -121t-70 -85t-96 -48t-108.5 -16q-108 0 -180 37q-23 15 -25 34l-14 191q0 6 12 6t12 -6q10 -75 90.5 -145t180.5 -70q63 0 104 37t41 116q0 57 -27.5 105t-71 83t-96.5 68.5t-106 70t-96.5 79t-71 104t-27.5 135.5q0 80 27 138.5 t106 132.5q-73 76 -73 170q0 89 45 152.5t110.5 90.5t141.5 27q110 0 180 -39q22 -11 22 -33l17 -192q0 -5 -12.5 -5t-12.5 5q-10 76 -90 146.5t-180 70.5q-62 0 -101.5 -37t-39.5 -117q0 -57 26.5 -105t69 -83t94 -68.5t103.5 -70t94.5 -79t69 -104t26.5 -135.5 q0 -78 -27 -135.5t-102 -130.5zM227 596q0 -61 19.5 -113.5t49.5 -89t73.5 -72t83 -60t87.5 -56.5t78 -58q64 69 64 187q0 74 -25.5 133.5t-71.5 103t-92.5 76t-105.5 71t-92 68.5q-68 -70 -68 -190z" />
<glyph unicode="&#xa8;" horiz-adv-x="659" d="M152 985q-38 0 -60 20.5t-22 57.5t22 57.5t60 20.5q37 0 57 -20.5t20 -57.5t-20 -57.5t-57 -20.5zM510 985q-37 0 -59.5 21t-22.5 57t22.5 57t59.5 21q38 0 59 -20.5t21 -57.5t-21 -57.5t-59 -20.5z" />
<glyph unicode="&#xa9;" horiz-adv-x="1372" d="M702 -145q-79 0 -160 22t-159 70t-139 116.5t-98 169t-37 218.5q0 136 54 254.5t144 199t208 126.5t245 46q114 0 210 -37t160 -100.5t100 -148.5t36 -179q0 -126 -65.5 -235t-179.5 -173.5t-249 -64.5q-93 0 -165.5 28t-114.5 75.5t-63 103t-21 115.5q0 79 31 145.5 t81.5 109t112.5 66t125 23.5q70 0 127.5 -28t60.5 -68q0 -21 -16 -37.5t-37 -16.5q-31 0 -70 50q-17 24 -28 36t-34.5 22.5t-55.5 10.5q-183 0 -183 -266q0 -66 15.5 -120t50 -99t96 -69.5t145.5 -24.5q72 0 136.5 21t118 62.5t85 113t31.5 163.5q0 130 -65.5 238.5 t-181.5 172.5t-257 64q-121 0 -218.5 -42t-160.5 -114.5t-97 -169.5t-34 -208q0 -117 37.5 -216t97 -165t135 -112.5t151 -67.5t145.5 -21q126 0 212.5 18t198.5 76q5 2 9.5 -5t1.5 -11q-108 -81 -219.5 -109t-252.5 -28z" />
<glyph unicode="&#xaa;" horiz-adv-x="565" d="M551 834q7 3 12 -6.5t0 -12.5l-139 -65q-20 -8 -36 15t-19 73l-90 -50q-73 -40 -113 -40q-41 0 -65.5 22.5t-24.5 56.5q0 32 26 51.5t97 45.5l170 61v117q0 50 -8 82t-24 46t-31.5 18.5t-39.5 4.5q-42 0 -69 -29t-37 -75q-2 -11 -3.5 -15t-6 -12.5t-12 -12t-19.5 -3.5 q-18 0 -30.5 12t-12.5 25q0 44 89.5 95.5t156.5 51.5q49 0 79.5 -37t30.5 -110v-240q0 -69 26 -82.5t93 13.5zM268 809l101 51v105l-158 -62q-33 -13 -44 -22.5t-11 -28.5q0 -24 16.5 -39.5t42.5 -15.5q25 0 53 12zM528 641q9 0 9 -25.5t-9 -25.5h-458q-6 0 -8 13t-0.5 25.5 t6.5 12.5h460z" />
<glyph unicode="&#xab;" horiz-adv-x="923" d="M481 154l-356 307q-9 7 -9 21.5t9 23.5l356 305q2 3 6.5 2t7.5 -5t1 -7l-267 -318l267 -317q2 -7 -7 -13q-6 -3 -8 1zM782 154l-356 307q-9 7 -9 21.5t9 23.5l356 305q6 8 14 -2q4 -5 1 -8l-265 -318l265 -317q2 -3 -0.5 -7.5t-7 -6t-7.5 1.5z" />
<glyph unicode="&#xac;" horiz-adv-x="808" d="M745 618v-389q0 -6 -19.5 -8t-38.5 -0.5t-19 6.5v314h-598q-6 0 -8 19.5t-0.5 38.5t6.5 19h677z" />
<glyph unicode="&#xad;" horiz-adv-x="661" d="M66 344q-6 -1 -8.5 20t-1.5 43.5t5 24.5l535 94q6 1 8 -20t0 -43t-8 -23z" />
<glyph unicode="&#xae;" horiz-adv-x="1443" d="M760 1063q129 0 239 -45.5t183 -122t114 -178t41 -213.5q0 -133 -51 -253t-136.5 -205t-201 -135t-241.5 -50q-87 0 -172 24t-162 74.5t-135.5 120t-93.5 168.5t-35 213q0 169 92 308.5t240.5 216.5t318.5 77zM758 -80q231 0 372.5 142.5t141.5 383.5q0 157 -74.5 287.5 t-207 206.5t-294.5 76q-120 0 -218 -41.5t-161 -112.5t-97 -162.5t-34 -193.5q0 -112 35 -209.5t93 -165.5t133 -116.5t154 -71.5t157 -23zM1110 152q3 0 3 -9.5t-3 -9.5h-152q-38 0 -210 336h2q-51 -11 -125 -8v-211q0 -61 19 -76.5t91 -15.5q3 0 3 -12.5t-3 -12.5 q-18 0 -66.5 2t-80.5 2q-26 0 -79 -2t-69 -2q-3 0 -3 12.5t3 12.5q74 0 93.5 15.5t19.5 76.5v440q0 56 -20.5 73t-92.5 17q-3 0 -3 12.5t3 12.5q19 0 70.5 -1t77.5 -1q25 0 84.5 3t81.5 3q182 0 182 -133q0 -126 -113 -182q104 -200 142 -253q55 -77 118 -87q13 -2 27 -2z M625 498q117 -16 176 11.5t59 117.5q0 155 -139 155q-32 0 -46 -2t-28 -11t-18 -28.5t-4 -54.5v-188z" />
<glyph unicode="&#xaf;" horiz-adv-x="706" d="M96 993q-10 0 -10 27t10 27h514q10 0 10 -27t-10 -27h-514z" />
<glyph unicode="&#xb0;" horiz-adv-x="679" d="M342 764q-126 0 -204.5 76t-78.5 190q0 108 79 184t204 76t202 -75.5t77 -188.5q0 -112 -77.5 -187t-201.5 -75zM356 786q50 0 82.5 16t48 49t20.5 69t5 92q0 258 -182 258q-49 0 -81.5 -17.5t-49 -51.5t-23 -72.5t-6.5 -92.5q0 -117 41.5 -183.5t144.5 -66.5z" />
<glyph unicode="&#xb1;" horiz-adv-x="815" d="M70 526q-6 0 -8 19.5t-0.5 39t6.5 19.5h301v299q0 9 38.5 9t38.5 -9v-299h299q9 0 9 -39t-9 -39h-299v-299q0 -6 -19 -8t-38.5 -0.5t-19.5 6.5v301h-299zM745 119q9 0 9 -34t-9 -34h-675q-6 0 -8 17t-0.5 34t6.5 17h677z" />
<glyph unicode="&#xb2;" horiz-adv-x="512" d="M70 836q12 37 56 103.5t88 127t79 135t35 129.5q0 56 -29.5 88.5t-77.5 32.5q-51 0 -88 -34t-49 -87q-1 -4 -7.5 -4.5t-12.5 2.5t-5 8q46 156 193 156q76 0 118 -41t42 -104q0 -49 -38.5 -116t-85.5 -122.5t-95 -117.5t-62 -97q0 -6 6 -6h110.5t72 5.5t49.5 9t27 21.5 t20 31.5t16 49.5q0 4 5 4t5 -4l-2 -172q0 -11 -8 -11h-356q-10 0 -6 13z" />
<glyph unicode="&#xb3;" horiz-adv-x="514" d="M276 1171q76 -17 119 -53t43 -106q0 -83 -54 -142t-148 -59q-79 0 -126 39t-63 102q-1 5 5 8.5t12.5 3t7.5 -5.5q11 -43 49 -77.5t104 -34.5q129 0 129 139q0 77 -43.5 124.5t-109.5 47.5q-5 0 -5 12.5t5 12.5q59 0 93 48.5t34 100.5q0 51 -30.5 86t-80.5 35 q-47 0 -84 -34.5t-49 -86.5q-1 -4 -7.5 -4.5t-12.5 2.5t-5 8q19 70 66 113t125 43q74 0 118 -41.5t44 -105.5q0 -57 -37 -104.5t-99 -70.5z" />
<glyph unicode="&#xb4;" horiz-adv-x="563" d="M57 901q-6 -3 -10 2t-3.5 10.5t3.5 8.5q60 28 119.5 60t127.5 71t105 59q15 7 80 -24q40 -19 37 -27q0 -1 -4 -2q-218 -54 -455 -158z" />
<glyph unicode="&#xb6;" horiz-adv-x="1177" d="M659 0q-156 0 -281 61t-196 171t-71 247q0 202 156.5 340.5t391.5 138.5q23 0 93 -3t98 -3q47 0 126 3t109 3q5 0 5 -12t-5 -12q-88 0 -135 -43t-47 -123v-580q0 -78 47 -120.5t135 -42.5q5 0 5 -12.5t-5 -12.5q-30 0 -109 2t-126 2q-28 0 -98 -2t-93 -2zM731 94 q0 -27 19 -38t38 0.5t19 39.5v766q0 28 -19 39.5t-38 0t-19 -39.5v-768z" />
<glyph unicode="&#xb7;" horiz-adv-x="399" d="M201 401q-37 0 -59.5 21.5t-22.5 58.5q0 35 22.5 56.5t59.5 21.5q38 0 59 -21t21 -57q0 -37 -21 -58.5t-59 -21.5z" />
<glyph unicode="&#xb8;" horiz-adv-x="475" d="M231 -4q-14 -42 -20 -63.5t-10 -43t-1 -31t11 -20t22 -19t34 -19.5q16 -8 24 -13q110 -64 110 -158q0 -74 -51.5 -133t-150.5 -59q-54 0 -90.5 19.5t-36.5 54.5q0 25 16.5 40t40.5 15q21 0 35 -14t21 -31t25.5 -31t47.5 -14q76 0 76 84q0 54 -38 95t-138 95 q-30 17 -32.5 25.5t11.5 38.5q21 50 70 184z" />
<glyph unicode="&#xb9;" horiz-adv-x="536" d="M100 823q-4 0 -4 12.5t4 12.5q97 0 119.5 22t22.5 119v242q0 122 -2 135q-5 34 -29 34t-125 -44q-5 -2 -10.5 2.5t-6 10t4.5 9.5l225 111q7 4 13.5 -1.5t6.5 -12.5v-486q0 -53 2.5 -77t18 -41t39 -20t74.5 -3q6 0 6 -12.5t-6 -12.5q-21 0 -78 3t-92 3q-36 0 -98.5 -3 t-84.5 -3z" />
<glyph unicode="&#xba;" horiz-adv-x="641" d="M311 735q-117 0 -188.5 83t-71.5 202q0 66 26 119.5t68.5 85t91.5 48.5t99 17q116 0 187 -82t71 -194q0 -116 -84 -197.5t-199 -81.5zM342 766q80 0 128 56.5t48 154.5q0 118 -62.5 199t-158.5 81q-82 0 -126 -51.5t-44 -146.5q0 -119 61 -206t154 -87zM74 590 q-6 0 -8 13t-0.5 25.5t6.5 12.5h497q9 0 9 -25.5t-9 -25.5h-495z" />
<glyph unicode="&#xbb;" horiz-adv-x="923" d="M141 811l357 -305q9 -9 9 -23.5t-9 -21.5l-357 -307q-4 -7 -11 1q-5 6 -3 11l266 315l-266 320q-2 5 6 11q6 2 8 -1zM442 811l359 -305q7 -9 7 -23.5t-7 -21.5l-359 -307q-4 -7 -11 1q-5 6 -3 11l266 315l-266 320q-2 5 6 11q6 4 8 -1z" />
<glyph unicode="&#xbc;" horiz-adv-x="1224" d="M453 655q6 0 6 -11t-6 -11q-21 0 -78 2t-92 2q-36 0 -98.5 -2t-84.5 -2q-4 0 -4 11t4 11q97 0 119.5 22.5t22.5 119.5v243v48q1 107 -18.5 117t-137.5 -42q-5 -2 -10.5 3t-6 11t4.5 9l225 112q7 3 13.5 -3t6.5 -11v-487q0 -98 20.5 -120t113.5 -22zM901 1282q4 3 14 0.5 t21 -8t10 -8.5l-573 -1266q-3 -3 -13 0t-21.5 9t-10.5 9zM1163 23q3 0 3 -12.5t-3 -12.5q-15 0 -53 1t-66 1q-32 0 -84 -1t-71 -1q-3 0 -3 12.5t3 12.5q74 0 93 10t19 51v104q-175 5 -256 5q-5 0 -8 3.5t0 6.5l318 461q3 3 9.5 1t6.5 -6v-430l92 7q6 0 6 -28t-6 -28 q-62 4 -92 4v-100q0 -40 13.5 -50.5t78.5 -10.5zM821 223q82 0 180 4v316l-184 -314q-3 -6 4 -6z" />
<glyph unicode="&#xbd;" horiz-adv-x="1247" d="M100 633q-4 0 -4 11t4 11q97 0 119.5 22.5t22.5 119.5v243v48q1 107 -18.5 117t-137.5 -42q-5 -2 -10.5 3t-6 11t4.5 9l225 112q7 3 13.5 -3t6.5 -11v-487q0 -98 20.5 -120t113.5 -22q6 0 6 -11t-6 -11q-21 0 -78 2t-92 2q-36 0 -98.5 -2t-84.5 -2zM373 0q-3 -3 -13 0 t-21.5 9t-10.5 9l573 1264q4 3 14 0.5t21 -8t10 -8.5zM805 12q12 37 56 103.5t88 127t79 135t35 130.5q0 55 -29.5 87t-77.5 32q-51 0 -88 -33t-49 -86q-1 -5 -7.5 -5.5t-12 2.5t-4.5 7q46 156 192 156q78 0 119 -40.5t41 -103.5q0 -49 -38.5 -115.5t-85.5 -122t-95 -117.5 t-62 -97q0 -6 6 -6h86t63.5 2.5t48.5 3.5t32.5 9.5t24.5 13t14.5 21.5t13.5 27.5t12 38.5q0 3 5.5 3t5.5 -3l-2 -172q0 -10 -9 -10h-356q-9 0 -6 12z" />
<glyph unicode="&#xbe;" horiz-adv-x="1202" d="M438 819q0 -81 -54 -139.5t-148 -58.5q-79 0 -126 38.5t-63 102.5q-1 5 5 8t12.5 2t7.5 -6q12 -43 49.5 -78t103.5 -35q58 0 93.5 33.5t35.5 106.5q0 78 -43.5 125t-109.5 47q-5 0 -5 12t5 12q59 0 93 49t34 103q0 49 -31 84t-80 35q-46 0 -83.5 -34t-49.5 -85 q-1 -5 -7.5 -6t-12.5 2t-5 8q19 69 66 112t125 43q74 0 118 -40.5t44 -104.5q0 -57 -36.5 -104.5t-96.5 -69.5q159 -35 159 -162zM879 1282q4 3 15 0.5t21.5 -8t8.5 -8.5l-572 -1266q-3 -3 -13 0t-21.5 9t-10.5 9zM1143 23q1 0 1 -12.5t-1 -12.5q-17 0 -55.5 1t-65.5 1 q-32 0 -84 -1t-72 -1q-3 0 -3 12.5t3 12.5q74 0 93.5 10t19.5 51v104q-175 5 -256 5q-4 0 -7 3.5t1 6.5l315 461q3 3 10 1t7 -6v-430l94 7q5 0 5 -28t-5 -28q-62 4 -94 4v-100q0 -29 4.5 -39.5t23.5 -16t66 -5.5zM801 223q80 0 178 4v312l-184 -310q-3 -6 6 -6z" />
<glyph unicode="&#xbf;" horiz-adv-x="669" d="M354 737q38 0 60 -20.5t22 -57.5t-22 -57t-60 -20q-37 0 -57.5 20t-20.5 57t20.5 57.5t57.5 20.5zM350 -539q28 0 46.5 8t28 25.5t13.5 30t8 35.5q11 75 68 75q28 0 46 -18.5t18 -42.5q0 -56 -70.5 -96.5t-167.5 -40.5q-115 0 -191.5 63t-76.5 181q0 59 23.5 112.5 t43.5 77.5t67 72q3 4 6 6.5t5 5.5q73 73 103 129t30 125q0 27 -12 113q-1 3 3.5 5.5t10 2.5t6.5 -4q25 -53 39.5 -125t14.5 -119q0 -46 -16.5 -85t-41.5 -64.5t-54 -55t-54 -56.5t-41.5 -69.5t-16.5 -93.5q0 -90 45.5 -143.5t116.5 -53.5z" />
<glyph unicode="&#xc0;" horiz-adv-x="1429" d="M438 1548q-17 3 24 24q59 30 84 28q3 0 5 -1q25 -14 101.5 -57.5t133 -73.5t117.5 -57q4 -3 4.5 -8.5t-4 -10.5t-10.5 -3q-213 96 -455 159zM1421 25q7 0 7 -12.5t-7 -12.5q-38 0 -117 4t-116 4q-43 0 -109 -4t-102 -4q-9 0 -9 12.5t9 12.5q116 0 144.5 30.5t-9.5 116.5 l-244 522h-391l-184 -442q-50 -126 -9 -176.5t183 -50.5q9 0 9 -12.5t-9 -12.5q-38 0 -112.5 4t-129.5 4q-50 0 -116 -4t-105 -4q-9 0 -9 12.5t9 12.5q85 0 137.5 50t112.5 195l428 1030q3 6 13.5 6t11.5 -6l475 -1019q69 -152 118.5 -204t120.5 -52zM494 733h358l-190 406z " />
<glyph unicode="&#xc1;" horiz-adv-x="1429" d="M494 1389q-11 -4 -14 11q-2 9 3 11q80 36 205.5 106.5t147.5 81.5q13 8 78 -22q41 -19 38 -27q-1 -1 -4 -2q-240 -62 -454 -159zM1421 25q7 0 7 -12.5t-7 -12.5q-38 0 -117 4t-116 4q-43 0 -109 -4t-102 -4q-9 0 -9 12.5t9 12.5q116 0 144.5 30.5t-9.5 116.5l-244 522 h-391l-184 -442q-50 -126 -9 -176.5t183 -50.5q9 0 9 -12.5t-9 -12.5q-38 0 -112.5 4t-129.5 4q-50 0 -116 -4t-105 -4q-9 0 -9 12.5t9 12.5q85 0 137.5 50t112.5 195l428 1030q3 6 13.5 6t11.5 -6l475 -1019q69 -152 118.5 -204t120.5 -52zM494 733h358l-190 406z" />
<glyph unicode="&#xc2;" horiz-adv-x="1429" d="M469 1327q-2 -1 -6 2t-6 6.5t0 5.5l211 189q9 9 23.5 9t23.5 -9l209 -189q7 -4 -2 -11q-5 -4 -9 -3l-221 127zM1421 25q7 0 7 -12.5t-7 -12.5q-38 0 -117 4t-116 4q-43 0 -109 -4t-102 -4q-9 0 -9 12.5t9 12.5q116 0 144.5 30.5t-9.5 116.5l-244 522h-391l-184 -442 q-50 -126 -9 -176.5t183 -50.5q9 0 9 -12.5t-9 -12.5q-38 0 -112.5 4t-129.5 4q-50 0 -116 -4t-105 -4q-9 0 -9 12.5t9 12.5q85 0 137.5 50t112.5 195l428 1030q3 6 13.5 6t11.5 -6l475 -1019q69 -152 118.5 -204t120.5 -52zM494 733h358l-190 406z" />
<glyph unicode="&#xc3;" horiz-adv-x="1429" d="M434 1427q-5 -3 -11.5 4t-2.5 11q90 117 172 117q32 0 117.5 -25t140.5 -25q25 0 45.5 9.5t29.5 18.5t25 28q5 3 12 -4t3 -11q-53 -69 -88 -93.5t-72 -24.5q-46 0 -131.5 25.5t-138.5 25.5q-13 0 -25 -2.5t-19.5 -5.5t-17 -10t-13.5 -11t-13.5 -14t-12.5 -13zM1421 25 q7 0 7 -12.5t-7 -12.5q-38 0 -117 4t-116 4q-43 0 -109 -4t-102 -4q-9 0 -9 12.5t9 12.5q116 0 144.5 30.5t-9.5 116.5l-244 522h-391l-184 -442q-50 -126 -9 -176.5t183 -50.5q9 0 9 -12.5t-9 -12.5q-38 0 -112.5 4t-129.5 4q-50 0 -116 -4t-105 -4q-9 0 -9 12.5t9 12.5 q85 0 137.5 50t112.5 195l428 1030q3 6 13.5 6t11.5 -6l475 -1019q69 -152 118.5 -204t120.5 -52zM494 733h358l-190 406z" />
<glyph unicode="&#xc4;" horiz-adv-x="1429" d="M512 1473q-37 0 -58.5 20.5t-21.5 58.5q0 35 21.5 55.5t58.5 20.5q38 0 59 -20t21 -56q0 -38 -21 -58.5t-59 -20.5zM872 1473q-38 0 -59.5 20.5t-21.5 58.5q0 35 21.5 55.5t59.5 20.5q37 0 57.5 -20.5t20.5 -55.5q0 -38 -20.5 -58.5t-57.5 -20.5zM1421 25q7 0 7 -12.5 t-7 -12.5q-38 0 -117 4t-116 4q-43 0 -109 -4t-102 -4q-9 0 -9 12.5t9 12.5q116 0 144.5 30.5t-9.5 116.5l-244 522h-391l-184 -442q-50 -126 -9 -176.5t183 -50.5q9 0 9 -12.5t-9 -12.5q-38 0 -112.5 4t-129.5 4q-50 0 -116 -4t-105 -4q-9 0 -9 12.5t9 12.5q85 0 137.5 50 t112.5 195l428 1030q3 6 13.5 6t11.5 -6l475 -1019q69 -152 118.5 -204t120.5 -52zM494 733h358l-190 406z" />
<glyph unicode="&#xc5;" horiz-adv-x="1429" d="M686 1362q-78 0 -125 48.5t-47 115.5q0 73 59.5 115t131.5 42q69 0 119 -47t50 -114q0 -71 -58 -115.5t-130 -44.5zM664 1665q-38 0 -55 -23.5t-17 -74.5q0 -70 34.5 -127.5t90.5 -57.5q41 0 59.5 24.5t18.5 78.5q0 73 -38 126.5t-93 53.5zM1421 25q7 0 7 -12.5t-7 -12.5 q-38 0 -117 4t-116 4q-43 0 -109 -4t-102 -4q-9 0 -9 12.5t9 12.5q116 0 144.5 30.5t-9.5 116.5l-244 522h-391l-184 -442q-50 -126 -9 -176.5t183 -50.5q9 0 9 -12.5t-9 -12.5q-38 0 -112.5 4t-129.5 4q-50 0 -116 -4t-105 -4q-9 0 -9 12.5t9 12.5q85 0 137.5 50t112.5 195 l428 1030q3 6 13.5 6t11.5 -6l475 -1019q69 -152 118.5 -204t120.5 -52zM494 733h358l-190 406z" />
<glyph unicode="&#xc6;" horiz-adv-x="1783" d="M1655 299q0 4 6 5t12 -1t6 -6q-18 -130 -18 -266q0 -17 -7 -24t-26 -7h-821q-5 0 -5 12.5t5 12.5q116 0 149 25.5t33 115.5v481h-364l-275 -395q-82 -117 -57.5 -172t156.5 -55q9 0 9 -12.5t-9 -12.5q-38 0 -112.5 4t-129.5 4q-46 0 -104.5 -4t-92.5 -4q-9 0 -9 12.5 t9 12.5q59 0 139.5 66t159.5 179l629 906q34 48 23 61q-12 17 -119 18h-35q-5 0 -5 12.5t5 12.5h786q19 0 19 -18l4 -248q0 -6 -11.5 -6t-11.5 6q0 101 -55.5 164t-144.5 63h-119q-112 0 -144 -23.5t-32 -105.5v-426h245q94 0 131 31.5t37 109.5q0 5 12.5 5t12.5 -5 q0 -44 -1 -92t-1 -69q0 -30 2 -90t2 -95q0 -5 -12.5 -5t-12.5 5q0 92 -39 129t-137 37h-239v-473q0 -86 32 -110.5t144 -24.5h166q82 0 141 71.5t74 188.5zM651 686h338v485z" />
<glyph unicode="&#xc7;" horiz-adv-x="1370" d="M1257 324q1 7 13 5t12 -7l-29 -220q-5 -26 -9.5 -33t-22.5 -14q-184 -80 -392 -80h-41q-22 -67 -24.5 -94.5t9.5 -41.5t54 -38q16 -9 25 -14q113 -65 113 -158q0 -74 -52 -133t-151 -59q-54 0 -90.5 19.5t-36.5 54.5q0 25 16.5 40t40.5 15q20 0 34 -14t21 -31t26 -31 t48 -14q35 0 54.5 21t19.5 63q0 54 -37.5 95t-136.5 95q-30 17 -32.5 25.5t11.5 38.5q33 81 62 163q-137 9 -249.5 53.5t-187.5 110.5t-127 152t-75 176t-23 184q0 141 62.5 264t166 206.5t238.5 131.5t279 48q101 0 202 -20t162 -56q17 -11 22.5 -19t6.5 -30l23 -215 q0 -5 -11 -7t-12 5q-74 299 -473 299q-243 0 -391 -151t-148 -400q0 -192 84 -356t224 -258.5t301 -94.5q151 0 259.5 80t161.5 244z" />
<glyph unicode="&#xc8;" horiz-adv-x="1091" d="M340 1548q-17 3 24 24q59 30 84 28q3 0 5 -1q25 -14 101.5 -57.5t133 -73.5t117.5 -57q4 -3 4.5 -8.5t-4 -10.5t-10.5 -3q-213 96 -455 159zM963 299q0 4 6 5t12 -1t6 -6q-18 -130 -18 -266q0 -17 -7 -24t-26 -7h-846q-4 0 -4 12.5t4 12.5q116 0 149 25.5t33 115.5v948 q0 89 -33 115t-149 26q-4 0 -4 12.5t4 12.5h811q19 0 19 -18l4 -248q0 -6 -11.5 -6t-11.5 6q0 105 -55.5 166t-145.5 61h-141q-114 0 -146 -25.5t-32 -113.5v-416h270q94 0 131 31.5t37 109.5q0 5 12.5 5t12.5 -5q0 -44 -1 -92t-1 -69q0 -30 2 -90t2 -95q0 -5 -12.5 -5 t-12.5 5q0 92 -39 129t-137 37h-264v-473q0 -86 32 -110.5t146 -24.5h189q82 0 141 71.5t74 188.5z" />
<glyph unicode="&#xc9;" horiz-adv-x="1091" d="M395 1389q-9 -3 -12.5 8t2.5 14q79 36 203.5 106t148.5 82q13 8 77 -21q44 -20 40 -28q-1 -1 -4 -2q-242 -63 -455 -159zM963 299q0 4 6 5t12 -1t6 -6q-18 -130 -18 -266q0 -17 -7 -24t-26 -7h-846q-4 0 -4 12.5t4 12.5q116 0 149 25.5t33 115.5v948q0 89 -33 115 t-149 26q-4 0 -4 12.5t4 12.5h811q19 0 19 -18l4 -248q0 -6 -11.5 -6t-11.5 6q0 105 -55.5 166t-145.5 61h-141q-114 0 -146 -25.5t-32 -113.5v-416h270q94 0 131 31.5t37 109.5q0 5 12.5 5t12.5 -5q0 -44 -1 -92t-1 -69q0 -30 2 -90t2 -95q0 -5 -12.5 -5t-12.5 5 q0 92 -39 129t-137 37h-264v-473q0 -86 32 -110.5t146 -24.5h189q82 0 141 71.5t74 188.5z" />
<glyph unicode="&#xca;" horiz-adv-x="1091" d="M373 1399q-5 -2 -11 6q-5 6 0 8l211 189q7 9 21.5 9t23.5 -9l211 -189q2 -2 0.5 -6t-5.5 -7t-7 -1l-221 127zM963 299q0 4 6 5t12 -1t6 -6q-18 -130 -18 -266q0 -17 -7 -24t-26 -7h-846q-4 0 -4 12.5t4 12.5q116 0 149 25.5t33 115.5v948q0 89 -33 115t-149 26 q-4 0 -4 12.5t4 12.5h811q19 0 19 -18l4 -248q0 -6 -11.5 -6t-11.5 6q0 105 -55.5 166t-145.5 61h-141q-114 0 -146 -25.5t-32 -113.5v-416h270q94 0 131 31.5t37 109.5q0 5 12.5 5t12.5 -5q0 -44 -1 -92t-1 -69q0 -30 2 -90t2 -95q0 -5 -12.5 -5t-12.5 5q0 92 -39 129 t-137 37h-264v-473q0 -86 32 -110.5t146 -24.5h189q82 0 141 71.5t74 188.5z" />
<glyph unicode="&#xcb;" horiz-adv-x="1091" d="M414 1473q-37 0 -58.5 20.5t-21.5 58.5q0 35 21.5 55.5t58.5 20.5q38 0 59 -20t21 -56q0 -38 -21 -58.5t-59 -20.5zM774 1473q-39 0 -60.5 20.5t-21.5 58.5q0 35 22 55.5t60 20.5q37 0 57.5 -20.5t20.5 -55.5q0 -38 -20.5 -58.5t-57.5 -20.5zM963 299q0 4 6 5t12 -1t6 -6 q-18 -130 -18 -266q0 -17 -7 -24t-26 -7h-846q-4 0 -4 12.5t4 12.5q116 0 149 25.5t33 115.5v948q0 89 -33 115t-149 26q-4 0 -4 12.5t4 12.5h811q19 0 19 -18l4 -248q0 -6 -11.5 -6t-11.5 6q0 105 -55.5 166t-145.5 61h-141q-114 0 -146 -25.5t-32 -113.5v-416h270 q94 0 131 31.5t37 109.5q0 5 12.5 5t12.5 -5q0 -44 -1 -92t-1 -69q0 -30 2 -90t2 -95q0 -5 -12.5 -5t-12.5 5q0 92 -39 129t-137 37h-264v-473q0 -86 32 -110.5t146 -24.5h189q82 0 141 71.5t74 188.5z" />
<glyph unicode="&#xcc;" horiz-adv-x="675" d="M539 1389q-213 96 -455 159q-17 3 24 24q59 30 84 28q3 0 5 -1q25 -14 101.5 -57.5t133 -73.5t117.5 -57q4 -3 4.5 -8.5t-4 -10.5t-10.5 -3zM393 166q0 -90 32 -115.5t150 -25.5q5 0 5 -12.5t-5 -12.5q-29 0 -108 2t-131 2q-48 0 -128 -2t-110 -2q-6 0 -6 12.5t6 12.5 q117 0 151 26t34 115v948q0 88 -34.5 114.5t-150.5 26.5q-6 0 -6 12.5t6 12.5q30 0 110 -3t128 -3q52 0 132 3t107 3q5 0 5 -12.5t-5 -12.5q-80 0 -117.5 -12.5t-51 -41.5t-13.5 -91v-944z" />
<glyph unicode="&#xcd;" horiz-adv-x="675" d="M139 1389q-6 -2 -10.5 3t-4 10.5t4.5 8.5q79 36 203.5 106t148.5 82q13 8 77 -21q44 -20 40 -28q-1 -1 -4 -2q-242 -63 -455 -159zM393 166q0 -90 32 -115.5t150 -25.5q5 0 5 -12.5t-5 -12.5q-29 0 -108 2t-131 2q-48 0 -128 -2t-110 -2q-6 0 -6 12.5t6 12.5 q117 0 151 26t34 115v948q0 88 -34.5 114.5t-150.5 26.5q-6 0 -6 12.5t6 12.5q30 0 110 -3t128 -3q52 0 132 3t107 3q5 0 5 -12.5t-5 -12.5q-80 0 -117.5 -12.5t-51 -41.5t-13.5 -91v-944z" />
<glyph unicode="&#xce;" horiz-adv-x="675" d="M104 1413l211 189q9 9 23.5 9t23.5 -9l211 -189q2 -2 0.5 -6t-5.5 -7t-7 -1l-221 127l-223 -127q-2 -1 -6.5 2t-6.5 6.5t0 5.5zM393 166q0 -90 32 -115.5t150 -25.5q5 0 5 -12.5t-5 -12.5q-29 0 -108 2t-131 2q-48 0 -128 -2t-110 -2q-6 0 -6 12.5t6 12.5q117 0 151 26 t34 115v948q0 88 -34.5 114.5t-150.5 26.5q-6 0 -6 12.5t6 12.5q30 0 110 -3t128 -3q52 0 132 3t107 3q5 0 5 -12.5t-5 -12.5q-80 0 -117.5 -12.5t-51 -41.5t-13.5 -91v-944z" />
<glyph unicode="&#xcf;" horiz-adv-x="675" d="M195 1473q-39 0 -60.5 20.5t-21.5 58.5q0 35 22 55.5t60 20.5q37 0 57 -20t20 -56q0 -38 -20 -58.5t-57 -20.5zM481 1473q-37 0 -59.5 20.5t-22.5 58.5q0 35 22.5 55.5t59.5 20.5q38 0 59 -20t21 -56q0 -38 -21 -58.5t-59 -20.5zM393 166q0 -90 32 -115.5t150 -25.5 q5 0 5 -12.5t-5 -12.5q-29 0 -108 2t-131 2q-48 0 -128 -2t-110 -2q-6 0 -6 12.5t6 12.5q117 0 151 26t34 115v948q0 88 -34.5 114.5t-150.5 26.5q-6 0 -6 12.5t6 12.5q30 0 110 -3t128 -3q52 0 132 3t107 3q5 0 5 -12.5t-5 -12.5q-80 0 -117.5 -12.5t-51 -41.5t-13.5 -91 v-944z" />
<glyph unicode="&#xd0;" horiz-adv-x="1409" d="M580 1284q215 0 382 -82t257 -223.5t90 -316.5q0 -150 -56.5 -277t-152 -212.5t-223 -133t-269.5 -47.5q-36 0 -142 6t-155 6q-47 0 -127 -2t-110 -2q-4 0 -4 12.5t4 12.5q117 0 150.5 26t33.5 115v452h-149q-9 0 -9 18.5t9 18.5h149v459q0 89 -33 115t-149 26 q-4 0 -4 12.5t4 12.5q30 0 109 -3t126 -3q45 0 140 5t129 5zM588 18q264 0 426 157.5t162 440.5q0 134 -41 251t-115 203.5t-183 136.5t-239 50q-133 0 -182 -27.5t-49 -119.5v-455h278q7 0 7 -18.5t-7 -18.5h-278v-430q0 -93 45 -131.5t176 -38.5z" />
<glyph unicode="&#xd1;" horiz-adv-x="1484" d="M508 1427q-2 -2 -6 0.5t-7 7t-1 7.5q90 117 172 117q32 0 117.5 -25t140.5 -25q25 0 46 10t29.5 18t26.5 28q2 2 6 -0.5t7 -7t1 -7.5q-55 -70 -89 -94t-72 -24q-44 0 -130 25.5t-141 25.5q-16 0 -28 -2.5t-24 -10.5l-16.5 -11t-17 -16.5t-14.5 -15.5zM1432 1280 q6 0 6 -12.5t-6 -12.5q-88 0 -124 -43t-36 -147v-1088q0 -4 -10 -5.5t-15 1.5l-925 1139q-24 28 -35 39v-938q0 -104 34.5 -146t120.5 -42q6 0 6 -12.5t-6 -12.5q-23 0 -80.5 2t-93.5 2q-35 0 -95 -2t-85 -2q-4 0 -4 12.5t4 12.5q88 0 121 41t33 147v981q-71 61 -148 61 q-6 0 -6 12.5t6 12.5q23 0 70.5 -2t66.5 -2q22 0 55 2t38 2q16 0 24 -7.5t27.5 -38.5t42.5 -60l809 -1006v897q0 105 -33 147.5t-119 42.5q-5 0 -5 12.5t5 12.5q25 0 82.5 -3t93.5 -3q33 0 95 3t86 3z" />
<glyph unicode="&#xd2;" d="M987 1389q-213 96 -455 159q-17 4 25 25q58 29 84 27q2 0 4 -1q22 -12 79.5 -45t89.5 -50.5t84 -44.5t99 -48q6 -3 2.5 -14t-12.5 -8zM750 -25q-191 0 -341 91t-229.5 242t-79.5 331q0 129 43 239t115 187t165.5 131.5t195 80.5t202.5 26q146 0 270 -55t205.5 -146.5 t126.5 -208t45 -240.5q0 -140 -58 -266t-155 -216t-229 -143t-276 -53zM823 16q108 0 201.5 38.5t163 110.5t109.5 183t40 248q0 192 -74 342t-211 234.5t-317 84.5q-237 0 -370.5 -146.5t-133.5 -401.5q0 -191 73 -348.5t209.5 -251t309.5 -93.5z" />
<glyph unicode="&#xd3;" d="M588 1389q-6 -2 -10.5 3t-4 10.5t4.5 8.5q78 36 202.5 105.5t149.5 82.5q13 8 78 -22q41 -19 38 -27q-1 -1 -4 -2q-247 -64 -454 -159zM750 -25q-191 0 -341 91t-229.5 242t-79.5 331q0 129 43 239t115 187t165.5 131.5t195 80.5t202.5 26q146 0 270 -55t205.5 -146.5 t126.5 -208t45 -240.5q0 -140 -58 -266t-155 -216t-229 -143t-276 -53zM823 16q108 0 201.5 38.5t163 110.5t109.5 183t40 248q0 192 -74 342t-211 234.5t-317 84.5q-237 0 -370.5 -146.5t-133.5 -401.5q0 -191 73 -348.5t209.5 -251t309.5 -93.5z" />
<glyph unicode="&#xd4;" d="M553 1413l211 189q9 9 22.5 9t22.5 -9l211 -189q7 -4 -1 -11q-6 -5 -11 -3l-220 127l-223 -127q-2 -1 -6 2t-6 6.5t0 5.5zM750 -25q-191 0 -341 91t-229.5 242t-79.5 331q0 129 43 239t115 187t165.5 131.5t195 80.5t202.5 26q146 0 270 -55t205.5 -146.5t126.5 -208 t45 -240.5q0 -140 -58 -266t-155 -216t-229 -143t-276 -53zM823 16q108 0 201.5 38.5t163 110.5t109.5 183t40 248q0 192 -74 342t-211 234.5t-317 84.5q-237 0 -370.5 -146.5t-133.5 -401.5q0 -191 73 -348.5t209.5 -251t309.5 -93.5z" />
<glyph unicode="&#xd5;" d="M944 1509q25 0 45.5 10.5t27.5 17t27 28.5q2 2 6.5 -0.5t7.5 -7t1 -7.5q-53 -69 -88 -93.5t-72 -24.5q-45 0 -131 25.5t-141 25.5q-13 0 -24.5 -3t-18.5 -5t-17.5 -10.5t-13.5 -10.5t-14.5 -14t-12.5 -13q-2 -2 -6 0.5t-7 7t-1 7.5q95 117 174 117q32 0 117.5 -25 t140.5 -25zM750 -25q-191 0 -341 91t-229.5 242t-79.5 331q0 129 43 239t115 187t165.5 131.5t195 80.5t202.5 26q146 0 270 -55t205.5 -146.5t126.5 -208t45 -240.5q0 -140 -58 -266t-155 -216t-229 -143t-276 -53zM823 16q108 0 201.5 38.5t163 110.5t109.5 183t40 248 q0 192 -74 342t-211 234.5t-317 84.5q-237 0 -370.5 -146.5t-133.5 -401.5q0 -191 73 -348.5t209.5 -251t309.5 -93.5z" />
<glyph unicode="&#xd6;" d="M606 1473q-39 0 -60.5 20.5t-21.5 58.5q0 35 22 55.5t60 20.5q37 0 58.5 -20.5t21.5 -55.5q0 -38 -21.5 -58.5t-58.5 -20.5zM965 1473q-37 0 -58.5 20.5t-21.5 58.5q0 35 21.5 55.5t58.5 20.5q38 0 58.5 -20t20.5 -56q0 -79 -79 -79zM750 -25q-191 0 -341 91t-229.5 242 t-79.5 331q0 129 43 239t115 187t165.5 131.5t195 80.5t202.5 26q146 0 270 -55t205.5 -146.5t126.5 -208t45 -240.5q0 -140 -58 -266t-155 -216t-229 -143t-276 -53zM823 16q108 0 201.5 38.5t163 110.5t109.5 183t40 248q0 192 -74 342t-211 234.5t-317 84.5 q-237 0 -370.5 -146.5t-133.5 -401.5q0 -191 73 -348.5t209.5 -251t309.5 -93.5z" />
<glyph unicode="&#xd7;" horiz-adv-x="774" d="M442 455l211 -211q6 -6 -21 -33t-34 -23l-211 213l-213 -213q-3 -4 -18 8.5t-27.5 27.5t-9.5 18l215 215l-211 211q-5 4 7 19t26.5 27.5t17.5 8.5l213 -213l211 211q8 6 34.5 -20.5t20.5 -34.5z" />
<glyph unicode="&#xd8;" d="M1276 1122q93 -91 142.5 -214t49.5 -255q0 -140 -58 -266t-155 -216t-229 -143t-276 -53q-259 0 -441 164l-151 -153q-3 -4 -11.5 1t-14 13.5t-1.5 13.5l152 154q-88 91 -135.5 213t-47.5 258q0 129 43 239t115 187t165.5 131.5t195 80.5t202.5 26q249 0 428 -154 l137 139q7 7 23 -7q12 -10 6 -15zM231 709q0 -264 136 -455l807 817q-79 89 -191.5 137.5t-247.5 48.5q-237 0 -370.5 -146.5t-133.5 -401.5zM823 16q108 0 201.5 38.5t163 110.5t109.5 183t40 248q0 266 -141 446l-805 -819q80 -98 191 -152.5t241 -54.5z" />
<glyph unicode="&#xd9;" horiz-adv-x="1427" d="M969 1389q-210 95 -457 159q-17 3 24 24q59 30 84 28q3 0 5 -1q22 -12 101 -57t135 -74t116 -57q4 -3 4.5 -8.5t-3.5 -10.5t-9 -3zM1171 1065q0 98 -42.5 144t-131.5 46q-6 0 -6 12.5t6 12.5q27 0 92.5 -3t106.5 -3q33 0 95 3t87 3q4 0 4 -12.5t-4 -12.5q-83 0 -122 -46 t-39 -144v-586q0 -239 -129.5 -372.5t-348.5 -133.5q-228 0 -363.5 133t-135.5 355v653q0 88 -33.5 114.5t-149.5 26.5q-5 0 -5 12.5t5 12.5q30 0 109 -3t127 -3q50 0 129 3t106 3q6 0 6 -12.5t-6 -12.5q-115 0 -147.5 -27.5t-32.5 -117.5v-578q0 -240 112 -369.5 t316 -129.5q187 0 291 118t104 326v588z" />
<glyph unicode="&#xda;" horiz-adv-x="1427" d="M567 1389q-9 -3 -12.5 8t4.5 14q78 36 199.5 104.5t150.5 83.5q15 8 80 -22q40 -19 37 -27q0 -1 -4 -2q-246 -64 -455 -159zM1171 1065q0 98 -42.5 144t-131.5 46q-6 0 -6 12.5t6 12.5q27 0 92.5 -3t106.5 -3q33 0 95 3t87 3q4 0 4 -12.5t-4 -12.5q-83 0 -122 -46 t-39 -144v-586q0 -239 -129.5 -372.5t-348.5 -133.5q-228 0 -363.5 133t-135.5 355v653q0 88 -33.5 114.5t-149.5 26.5q-5 0 -5 12.5t5 12.5q30 0 109 -3t127 -3q50 0 129 3t106 3q6 0 6 -12.5t-6 -12.5q-115 0 -147.5 -27.5t-32.5 -117.5v-578q0 -240 112 -369.5 t316 -129.5q187 0 291 118t104 326v588z" />
<glyph unicode="&#xdb;" horiz-adv-x="1427" d="M535 1413l210 189q9 9 23 9t23 -9l210 -189q2 -2 1 -6t-5 -7t-8 -1l-221 127l-221 -127q-6 -2 -13 6q-4 6 1 8zM1171 1065q0 98 -42.5 144t-131.5 46q-6 0 -6 12.5t6 12.5q27 0 92.5 -3t106.5 -3q33 0 95 3t87 3q4 0 4 -12.5t-4 -12.5q-83 0 -122 -46t-39 -144v-586 q0 -239 -129.5 -372.5t-348.5 -133.5q-228 0 -363.5 133t-135.5 355v653q0 88 -33.5 114.5t-149.5 26.5q-5 0 -5 12.5t5 12.5q30 0 109 -3t127 -3q50 0 129 3t106 3q6 0 6 -12.5t-6 -12.5q-115 0 -147.5 -27.5t-32.5 -117.5v-578q0 -240 112 -369.5t316 -129.5 q187 0 291 118t104 326v588z" />
<glyph unicode="&#xdc;" horiz-adv-x="1427" d="M588 1473q-39 0 -60.5 20.5t-21.5 58.5q0 35 22 55.5t60 20.5q37 0 57.5 -20.5t20.5 -55.5q0 -38 -20.5 -58.5t-57.5 -20.5zM946 1473q-39 0 -60.5 20.5t-21.5 58.5q0 35 22 55.5t60 20.5t59 -20t21 -56q0 -38 -21 -58.5t-59 -20.5zM1171 1065q0 98 -42.5 144t-131.5 46 q-6 0 -6 12.5t6 12.5q27 0 92.5 -3t106.5 -3q33 0 95 3t87 3q4 0 4 -12.5t-4 -12.5q-83 0 -122 -46t-39 -144v-586q0 -239 -129.5 -372.5t-348.5 -133.5q-228 0 -363.5 133t-135.5 355v653q0 88 -33.5 114.5t-149.5 26.5q-5 0 -5 12.5t5 12.5q30 0 109 -3t127 -3q50 0 129 3 t106 3q6 0 6 -12.5t-6 -12.5q-115 0 -147.5 -27.5t-32.5 -117.5v-578q0 -240 112 -369.5t316 -129.5q187 0 291 118t104 326v588z" />
<glyph unicode="&#xdd;" horiz-adv-x="1243" d="M449 1389q-6 -2 -10.5 3t-4.5 10.5t4 8.5q80 36 205.5 106.5t147.5 81.5q13 8 78 -22q41 -19 38 -27q-1 -1 -4 -2q-240 -62 -454 -159zM1251 1280q5 0 5 -12.5t-5 -12.5q-76 0 -147.5 -48t-128.5 -136l-289 -438v-467q0 -38 4 -60.5t13.5 -40t31 -25.5t51.5 -11.5 t80 -3.5q6 0 6 -12.5t-6 -12.5q-28 0 -106.5 2t-128.5 2q-48 0 -129 -2t-109 -2q-6 0 -6 12.5t6 12.5q117 0 151 26t34 115v436l-351 508q-54 80 -105.5 112.5t-125.5 32.5q-6 0 -6 12.5t6 12.5q24 0 75 -3t74 -3q59 0 151 3t122 3q4 0 4 -12.5t-4 -12.5q-85 0 -106.5 -18.5 t10.5 -62.5l344 -494l262 397q114 178 -66 178q-4 0 -4 12.5t4 12.5q32 0 103 -3t127 -3q35 0 82 3t77 3z" />
<glyph unicode="&#xde;" horiz-adv-x="1095" d="M543 301q69 0 130.5 21t110.5 62t78 109t29 154q0 164 -101 257t-266 93q-76 0 -143 -18v-805q0 -39 5.5 -63t20 -42.5t44.5 -27t73 -12.5t113 -4q6 0 6 -12.5t-6 -12.5q-40 0 -142 2t-167 2q-47 0 -127.5 -2t-110.5 -2q-4 0 -4 12.5t4 12.5q116 0 149 25.5t33 115.5v948 q0 89 -33 115t-149 26q-4 0 -4 12.5t4 12.5q30 0 110.5 -3t127.5 -3q65 0 167 3t142 3q6 0 6 -12.5t-6 -12.5q-87 0 -134.5 -5.5t-76.5 -23.5t-37 -45t-8 -77v-98q88 16 194 16q94 0 171 -18t138.5 -56t96.5 -104t37 -156q2 -84 -24.5 -154.5t-72 -118t-105.5 -80.5 t-123.5 -48t-127.5 -15q-43 0 -100 11q-5 1 -5.5 8t2.5 13t7 5q50 -8 74 -8z" />
<glyph unicode="&#xdf;" horiz-adv-x="1087" d="M788 16q61 0 103.5 43t42.5 119q0 78 -54.5 157t-179.5 175q-20 14 -8 31l164 247q-217 130 -377 130q-101 0 -148.5 -65.5t-47.5 -227.5v-459q0 -90 19.5 -115.5t92.5 -25.5q5 0 5 -12.5t-5 -12.5q-25 0 -84.5 1t-85.5 1q-40 0 -107.5 -1t-94.5 -1q-6 0 -6 12.5t6 12.5 q98 0 127.5 26t29.5 115v416q0 73 26 143t73.5 128.5t124 94t169.5 35.5q129 0 263 -65q54 -27 76.5 -19.5t62.5 66.5q6 9 15.5 2t6.5 -15l-235 -360q139 -97 197.5 -175t58.5 -161q0 -108 -82.5 -194.5t-218.5 -86.5q-49 0 -90 15t-92 55q-14 8 -21 39l-20 145q-1 9 10 11 t14 -4q15 -79 100.5 -149.5t169.5 -70.5z" />
<glyph unicode="&#xe0;" horiz-adv-x="976" d="M264 1227q-17 4 25 25q59 30 84 29q3 0 4 -1q231 -134 352 -190q3 -3 3.5 -8.5t-3.5 -10.5t-10 -2q-237 104 -455 158zM938 111q6 3 11 -2t4.5 -11t-5.5 -10l-211 -100q-8 -4 -14 -4q-26 0 -46.5 40t-23.5 109l-159 -82q-127 -65 -193 -65q-58 0 -97.5 32.5t-39.5 94.5 q0 58 42.5 92t155.5 78l291 114v293q0 125 -38 182.5t-121 57.5q-87 0 -141 -64t-66 -147q-4 -27 -21.5 -47.5t-50.5 -20.5q-26 0 -43.5 18t-17.5 38q0 50 69 114t169 110t181 46q84 0 134.5 -56.5t50.5 -168.5v-531q0 -76 15 -108.5t54 -32.5q38 0 111 31zM479 74l174 84 v215l-276 -113q-43 -16 -63.5 -39.5t-20.5 -68.5q0 -101 90 -101q43 0 96 23z" />
<glyph unicode="&#xe1;" horiz-adv-x="976" d="M319 1069q-6 -3 -10.5 2t-4 10.5t4.5 8.5q59 28 118.5 60t129 71t105.5 59q14 7 78 -23q41 -20 38 -28q-1 -1 -4 -2q-225 -56 -455 -158zM938 111q6 3 11 -2t4.5 -11t-5.5 -10l-211 -100q-8 -4 -14 -4q-26 0 -46.5 40t-23.5 109l-159 -82q-127 -65 -193 -65 q-58 0 -97.5 32.5t-39.5 94.5q0 58 42.5 92t155.5 78l291 114v293q0 125 -38 182.5t-121 57.5q-87 0 -141 -64t-66 -147q-4 -27 -21.5 -47.5t-50.5 -20.5q-26 0 -43.5 18t-17.5 38q0 50 69 114t169 110t181 46q84 0 134.5 -56.5t50.5 -168.5v-531q0 -76 15 -108.5t54 -32.5 q38 0 111 31zM479 74l174 84v215l-276 -113q-43 -16 -63.5 -39.5t-20.5 -68.5q0 -101 90 -101q43 0 96 23z" />
<glyph unicode="&#xe2;" horiz-adv-x="976" d="M297 1077q-2 -1 -6 2t-6 7t0 6l211 190q9 9 22.5 9t22.5 -9l211 -190q8 -4 -3 -13q-5 -4 -10 -2l-219 127zM938 111q6 3 11 -2t4.5 -11t-5.5 -10l-211 -100q-8 -4 -14 -4q-26 0 -46.5 40t-23.5 109l-159 -82q-127 -65 -193 -65q-58 0 -97.5 32.5t-39.5 94.5q0 58 42.5 92 t155.5 78l291 114v293q0 125 -38 182.5t-121 57.5q-87 0 -141 -64t-66 -147q-4 -27 -21.5 -47.5t-50.5 -20.5q-26 0 -43.5 18t-17.5 38q0 50 69 114t169 110t181 46q84 0 134.5 -56.5t50.5 -168.5v-531q0 -76 15 -108.5t54 -32.5q38 0 111 31zM479 74l174 84v215l-276 -113 q-43 -16 -63.5 -39.5t-20.5 -68.5q0 -101 90 -101q43 0 96 23z" />
<glyph unicode="&#xe3;" horiz-adv-x="976" d="M258 1106q-2 -2 -6 0.5t-7 6.5t-1 7q97 119 174 119q32 0 117.5 -25.5t140.5 -25.5q25 0 45.5 10t28 17t26.5 28q3 3 10.5 -2.5t4.5 -11.5q-53 -69 -88 -93t-72 -24q-45 0 -131.5 24.5t-141.5 24.5q-13 0 -24.5 -3t-18.5 -5t-17.5 -10t-13 -10t-14 -14t-12.5 -13z M938 111q6 3 11 -2t4.5 -11t-5.5 -10l-211 -100q-8 -4 -14 -4q-26 0 -46.5 40t-23.5 109l-159 -82q-127 -65 -193 -65q-58 0 -97.5 32.5t-39.5 94.5q0 58 42.5 92t155.5 78l291 114v293q0 125 -38 182.5t-121 57.5q-87 0 -141 -64t-66 -147q-4 -27 -21.5 -47.5t-50.5 -20.5 q-26 0 -43.5 18t-17.5 38q0 50 69 114t169 110t181 46q84 0 134.5 -56.5t50.5 -168.5v-531q0 -76 15 -108.5t54 -32.5q38 0 111 31zM479 74l174 84v215l-276 -113q-43 -16 -63.5 -39.5t-20.5 -68.5q0 -101 90 -101q43 0 96 23z" />
<glyph unicode="&#xe4;" horiz-adv-x="976" d="M338 1153q-38 0 -60 20.5t-22 57.5t22 57.5t60 20.5q37 0 58.5 -20.5t21.5 -57.5t-21.5 -57.5t-58.5 -20.5zM696 1153q-37 0 -58.5 20.5t-21.5 57.5t21.5 57.5t58.5 20.5q38 0 59 -20.5t21 -57.5t-21 -57.5t-59 -20.5zM938 111q6 3 11 -2t4.5 -11t-5.5 -10l-211 -100 q-8 -4 -14 -4q-26 0 -46.5 40t-23.5 109l-159 -82q-127 -65 -193 -65q-58 0 -97.5 32.5t-39.5 94.5q0 58 42.5 92t155.5 78l291 114v293q0 125 -38 182.5t-121 57.5q-87 0 -141 -64t-66 -147q-4 -27 -21.5 -47.5t-50.5 -20.5q-26 0 -43.5 18t-17.5 38q0 50 69 114t169 110 t181 46q84 0 134.5 -56.5t50.5 -168.5v-531q0 -76 15 -108.5t54 -32.5q38 0 111 31zM479 74l174 84v215l-276 -113q-43 -16 -63.5 -39.5t-20.5 -68.5q0 -101 90 -101q43 0 96 23z" />
<glyph unicode="&#xe5;" horiz-adv-x="929" d="M449 1126q-78 0 -124 47.5t-46 114.5q0 74 58 116t130 42q71 0 120.5 -47.5t49.5 -114.5q0 -71 -57.5 -114.5t-130.5 -43.5zM426 1427q-72 0 -72 -98q0 -70 34.5 -127t90.5 -57q42 0 61 24t19 78q0 73 -39 126.5t-94 53.5zM938 111q6 3 11 -2t4.5 -11t-5.5 -10l-211 -100 q-8 -4 -14 -4q-26 0 -46.5 40t-23.5 109l-159 -82q-127 -65 -193 -65q-58 0 -97.5 32.5t-39.5 94.5q0 58 42.5 92t155.5 78l291 114v293q0 125 -38 182.5t-121 57.5q-87 0 -141 -64t-66 -147q-4 -27 -21.5 -47.5t-50.5 -20.5q-26 0 -43.5 18t-17.5 38q0 50 69 114t169 110 t181 46q84 0 134.5 -56.5t50.5 -168.5v-531q0 -76 15 -108.5t54 -32.5q38 0 111 31zM479 74l174 84v215l-276 -113q-43 -16 -63.5 -39.5t-20.5 -68.5q0 -101 90 -101q43 0 96 23z" />
<glyph unicode="&#xe6;" horiz-adv-x="1310" d="M1280 111q3 2 7.5 -2t6.5 -9.5t0 -9.5q-146 -115 -309 -115q-224 0 -305 175l-213 -109q-62 -32 -99 -43.5t-81 -11.5q-84 0 -127 34.5t-43 94.5q0 56 42 97t142 79l324 117q-2 20 -2 59q0 101 -1.5 163.5t-7.5 121t-16.5 89.5t-29 55t-43.5 32t-62 8q-55 0 -97 -18.5 t-64.5 -49t-33.5 -61t-14 -62.5q-4 -96 -72 -96q-32 0 -47.5 16.5t-15.5 41.5q0 57 61 120.5t156 106.5t186 43t136 -49.5t57 -155.5q88 205 319 205q106 0 166 -61t60 -166q0 -45 -23 -45l-489 -3q-19 -84 -19 -188q0 -237 78.5 -357t253.5 -120q128 0 219 74zM989 936 q-175 0 -235 -211l383 10q1 97 -39 149t-109 52zM451 66l219 104q-36 81 -45 215l-303 -119q-82 -33 -82 -110q0 -56 35 -83.5t87 -27.5q42 0 89 21z" />
<glyph unicode="&#xe7;" horiz-adv-x="1105" d="M991 287q1 7 13 5.5t12 -7.5l-29 -217q-2 -18 -6.5 -24t-22.5 -13q-160 -56 -327 -56h-4q-23 -68 -25 -95t9.5 -41.5t53.5 -37.5q16 -9 25 -14q113 -65 113 -158q0 -74 -52.5 -133t-152.5 -59q-53 0 -90 19.5t-37 54.5q0 25 16.5 40t40.5 15q21 0 35 -14t21.5 -31 t26.5 -31t48 -14q35 0 54.5 21t19.5 63q0 54 -37.5 95t-136.5 95q-30 17 -32.5 25.5t10.5 38.5q25 61 61 161q-112 5 -203 39.5t-149 86t-97.5 118t-56 132.5t-16.5 132q0 213 161.5 356.5t401.5 143.5q78 0 167 -15.5t144 -43.5q14 -6 18.5 -12.5t6.5 -22.5l22 -211 q0 -6 -11.5 -7.5t-12.5 5.5q-28 143 -127.5 211.5t-253.5 68.5q-168 0 -280.5 -126t-112.5 -316q0 -95 28.5 -184.5t82.5 -164t142.5 -120t196.5 -45.5q130 0 219.5 71t122.5 216z" />
<glyph unicode="&#xe8;" horiz-adv-x="892" d="M266 1227q-17 3 24 24q58 30 84 30q3 0 5 -1q255 -145 352 -190q3 -3 3.5 -8.5t-3.5 -10.5t-10 -2q-237 104 -455 158zM827 111q5 3 12 -6t3 -15q-146 -115 -318 -115q-108 0 -195.5 41.5t-141.5 110.5t-82.5 155t-28.5 179q0 218 145.5 370t360.5 152q117 0 183 -63.5 t66 -169.5q0 -25 -5 -35t-19 -10l-592 -3q-22 -80 -22 -174q0 -137 46.5 -246.5t137.5 -175t213 -65.5q141 0 237 70zM512 942q-100 0 -176 -56.5t-113 -158.5l486 8q1 98 -53 152.5t-144 54.5z" />
<glyph unicode="&#xe9;" horiz-adv-x="892" d="M322 1069q-6 -3 -10.5 2t-4.5 10.5t4 8.5q60 28 119.5 60t128.5 71t105 59q14 7 78 -23q41 -20 38 -28q-1 -1 -4 -2q-215 -53 -454 -158zM827 111q5 3 12 -6t3 -15q-146 -115 -318 -115q-108 0 -195.5 41.5t-141.5 110.5t-82.5 155t-28.5 179q0 218 145.5 370t360.5 152 q117 0 183 -63.5t66 -169.5q0 -25 -5 -35t-19 -10l-592 -3q-22 -80 -22 -174q0 -137 46.5 -246.5t137.5 -175t213 -65.5q141 0 237 70zM512 942q-100 0 -176 -56.5t-113 -158.5l486 8q1 98 -53 152.5t-144 54.5z" />
<glyph unicode="&#xea;" horiz-adv-x="892" d="M299 1077q-2 -1 -6 2t-6 7t0 6l211 190q9 9 23.5 9t21.5 -9l211 -190q3 -2 2 -6.5t-5.5 -7.5t-7.5 -1l-221 127zM827 111q5 3 12 -6t3 -15q-146 -115 -318 -115q-108 0 -195.5 41.5t-141.5 110.5t-82.5 155t-28.5 179q0 218 145.5 370t360.5 152q117 0 183 -63.5 t66 -169.5q0 -25 -5 -35t-19 -10l-592 -3q-22 -80 -22 -174q0 -137 46.5 -246.5t137.5 -175t213 -65.5q141 0 237 70zM512 942q-100 0 -176 -56.5t-113 -158.5l486 8q1 98 -53 152.5t-144 54.5z" />
<glyph unicode="&#xeb;" horiz-adv-x="892" d="M340 1153q-37 0 -59.5 21t-22.5 57t22.5 57t59.5 21q38 0 59 -20.5t21 -57.5t-21 -57.5t-59 -20.5zM700 1153q-38 0 -60 20.5t-22 57.5t22 57.5t60 20.5q37 0 57.5 -20.5t20.5 -57.5t-20.5 -57.5t-57.5 -20.5zM827 111q5 3 12 -6t3 -15q-146 -115 -318 -115 q-108 0 -195.5 41.5t-141.5 110.5t-82.5 155t-28.5 179q0 218 145.5 370t360.5 152q117 0 183 -63.5t66 -169.5q0 -25 -5 -35t-19 -10l-592 -3q-22 -80 -22 -174q0 -137 46.5 -246.5t137.5 -175t213 -65.5q141 0 237 70zM512 942q-100 0 -176 -56.5t-113 -158.5l486 8 q1 98 -53 152.5t-144 54.5z" />
<glyph unicode="&#xec;" horiz-adv-x="595" d="M506 1069q-234 103 -455 158q-17 4 25 25q59 30 84 29q3 0 4 -1q232 -134 350 -190q5 -2 5 -8.5t-3.5 -11t-9.5 -1.5zM352 166q0 -90 28 -115.5t130 -25.5q6 0 6 -12.5t-6 -12.5q-25 0 -96.5 2t-116.5 2q-40 0 -112.5 -2t-98.5 -2q-4 0 -4 12.5t4 12.5q102 0 131 25.5 t29 115.5v627q0 89 -29 115t-131 26q-4 0 -4 12t4 12q26 0 98.5 -3t112.5 -3q46 0 117.5 3t95.5 3q6 0 6 -12t-6 -12q-98 0 -128 -28.5t-30 -117.5v-622z" />
<glyph unicode="&#xed;" horiz-adv-x="595" d="M104 1069q-8 -5 -12 8q-3 10 4 13q59 28 118.5 60t129 71t105.5 59q14 7 78 -23q41 -20 38 -28q-1 -1 -4 -2q-222 -55 -457 -158zM352 166q0 -90 28 -115.5t130 -25.5q6 0 6 -12.5t-6 -12.5q-25 0 -96.5 2t-116.5 2q-40 0 -112.5 -2t-98.5 -2q-4 0 -4 12.5t4 12.5 q102 0 131 25.5t29 115.5v627q0 89 -29 115t-131 26q-4 0 -4 12t4 12q26 0 98.5 -3t112.5 -3q46 0 117.5 3t95.5 3q6 0 6 -12t-6 -12q-98 0 -128 -28.5t-30 -117.5v-622z" />
<glyph unicode="&#xee;" horiz-adv-x="595" d="M72 1092l211 190q9 9 22.5 9t22.5 -9l211 -190q8 -4 -3 -13q-5 -4 -10 -2l-219 127l-223 -127q-2 -1 -6 2t-6 7t0 6zM352 166q0 -90 28 -115.5t130 -25.5q6 0 6 -12.5t-6 -12.5q-25 0 -96.5 2t-116.5 2q-40 0 -112.5 -2t-98.5 -2q-4 0 -4 12.5t4 12.5q102 0 131 25.5 t29 115.5v627q0 89 -29 115t-131 26q-4 0 -4 12t4 12q26 0 98.5 -3t112.5 -3q46 0 117.5 3t95.5 3q6 0 6 -12t-6 -12q-98 0 -128 -28.5t-30 -117.5v-622z" />
<glyph unicode="&#xef;" horiz-adv-x="595" d="M160 1153q-37 0 -58.5 20.5t-21.5 57.5t21.5 57.5t58.5 20.5q38 0 59 -20.5t21 -57.5t-21 -57.5t-59 -20.5zM449 1153q-38 0 -60 20.5t-22 57.5t22 57.5t60 20.5q37 0 57 -20.5t20 -57.5t-20 -57.5t-57 -20.5zM352 166q0 -90 28 -115.5t130 -25.5q6 0 6 -12.5t-6 -12.5 q-25 0 -96.5 2t-116.5 2q-40 0 -112.5 -2t-98.5 -2q-4 0 -4 12.5t4 12.5q102 0 131 25.5t29 115.5v627q0 89 -29 115t-131 26q-4 0 -4 12t4 12q26 0 98.5 -3t112.5 -3q46 0 117.5 3t95.5 3q6 0 6 -12t-6 -12q-98 0 -128 -28.5t-30 -117.5v-622z" />
<glyph unicode="&#xf0;" horiz-adv-x="1163" d="M535 963q259 0 405.5 -134t146.5 -344q0 -215 -148 -354t-380 -139q-38 0 -133.5 6t-140.5 6q-40 0 -112.5 -2t-98.5 -2q-4 0 -4 12.5t4 12.5q103 0 132.5 26t29.5 115v301h-119q-9 0 -9 16.5t9 16.5h119v293q0 88 -29.5 114.5t-130.5 26.5q-4 0 -4 12t4 12q26 0 97.5 -3 t111.5 -3q41 0 125.5 5.5t124.5 5.5zM535 16q201 0 314.5 116t113.5 331q0 98 -26 182t-78 150.5t-139.5 104.5t-201.5 38q-100 0 -140 -32.5t-40 -117.5v-288h270q9 0 9 -16.5t-9 -16.5h-270v-279q0 -47 8 -77t29 -52.5t60 -32.5t100 -10z" />
<glyph unicode="&#xf1;" horiz-adv-x="1224" d="M399 1106q-2 -2 -6 0.5t-7 6.5t-1 7q97 119 174 119q32 0 117.5 -25.5t140.5 -25.5q25 0 45.5 9.5t29 17.5t26.5 28q1 1 3.5 1t4.5 -1.5t4 -4t2.5 -5t-0.5 -4.5q-53 -69 -88 -93t-72 -24q-46 0 -132 24.5t-140 24.5q-11 0 -20.5 -1.5t-18.5 -5t-14.5 -6t-13.5 -10 t-11 -9.5t-12 -11.5t-11 -11.5zM1210 25q4 0 4 -12.5t-4 -12.5q-23 0 -87 2t-101 2q-46 0 -117.5 -2t-95.5 -2q-5 0 -5 12.5t5 12.5q102 0 133 28t31 117v408q0 83 -13.5 145t-37.5 101.5t-60 64t-77 34t-93 9.5q-94 0 -175 -37.5t-175 -130.5v-594q0 -89 29 -117t129 -28 q6 0 6 -12.5t-6 -12.5q-25 0 -96.5 2t-116.5 2q-42 0 -114.5 -2t-98.5 -2q-4 0 -4 12.5t4 12.5q103 0 134.5 26t31.5 115v627q0 88 -29.5 114.5t-130.5 26.5q-6 0 -6 12t6 12q22 0 65.5 -1t67.5 -1q21 0 50 1t42 1q25 0 31 -6.5t6 -31.5v-121q193 184 397 184 q152 0 244 -84.5t92 -249.5v-483q0 -89 24.5 -115t110.5 -26z" />
<glyph unicode="&#xf2;" horiz-adv-x="1185" d="M791 1069q-237 104 -455 158q-17 3 24 24q58 30 84 30q3 0 5 -1q255 -145 352 -190q3 -3 3.5 -8.5t-3.5 -10.5t-10 -2zM563 -25q-108 0 -200.5 40.5t-154.5 108.5t-97 158t-35 189q0 98 33.5 182.5t90 144t129 102t150 63t154.5 20.5q87 0 164 -27.5t133.5 -75 t97.5 -109.5t61.5 -132.5t20.5 -142.5q0 -139 -74 -259.5t-200 -191t-273 -70.5zM618 16q170 0 271.5 113t101.5 313q0 101 -27.5 190.5t-79.5 159t-134.5 110t-184.5 40.5q-176 0 -273 -112.5t-97 -309.5q0 -139 48.5 -252t146 -182.5t228.5 -69.5z" />
<glyph unicode="&#xf3;" horiz-adv-x="1185" d="M391 1069q-6 -3 -10.5 2t-4 10.5t4.5 8.5q59 28 118.5 60t128 71t105.5 59q14 7 79 -24q41 -19 38 -27q-1 -1 -4 -2q-225 -56 -455 -158zM563 -25q-108 0 -200.5 40.5t-154.5 108.5t-97 158t-35 189q0 98 33.5 182.5t90 144t129 102t150 63t154.5 20.5q87 0 164 -27.5 t133.5 -75t97.5 -109.5t61.5 -132.5t20.5 -142.5q0 -139 -74 -259.5t-200 -191t-273 -70.5zM618 16q170 0 271.5 113t101.5 313q0 101 -27.5 190.5t-79.5 159t-134.5 110t-184.5 40.5q-176 0 -273 -112.5t-97 -309.5q0 -139 48.5 -252t146 -182.5t228.5 -69.5z" />
<glyph unicode="&#xf4;" horiz-adv-x="1185" d="M356 1092l211 190q9 9 23.5 9t21.5 -9l211 -190q8 -4 -2 -13q-6 -3 -10 -2l-219 127l-223 -127q-2 -1 -6.5 2t-6.5 7t0 6zM563 -25q-108 0 -200.5 40.5t-154.5 108.5t-97 158t-35 189q0 98 33.5 182.5t90 144t129 102t150 63t154.5 20.5q87 0 164 -27.5t133.5 -75 t97.5 -109.5t61.5 -132.5t20.5 -142.5q0 -139 -74 -259.5t-200 -191t-273 -70.5zM618 16q170 0 271.5 113t101.5 313q0 101 -27.5 190.5t-79.5 159t-134.5 110t-184.5 40.5q-176 0 -273 -112.5t-97 -309.5q0 -139 48.5 -252t146 -182.5t228.5 -69.5z" />
<glyph unicode="&#xf5;" horiz-adv-x="1185" d="M748 1188q25 0 45.5 10t28 17t26.5 28q1 1 3.5 1t4.5 -1.5t4 -4t2.5 -5t-0.5 -4.5q-53 -69 -88 -93t-72 -24q-46 0 -131.5 24.5t-138.5 24.5q-11 0 -21 -1.5t-19 -5t-14.5 -6.5t-13.5 -9.5t-11.5 -9.5t-11.5 -11.5t-11 -11.5t-10.5 3.5t-4.5 10.5q97 119 174 119 q32 0 118 -25.5t141 -25.5zM563 -25q-108 0 -200.5 40.5t-154.5 108.5t-97 158t-35 189q0 98 33.5 182.5t90 144t129 102t150 63t154.5 20.5q87 0 164 -27.5t133.5 -75t97.5 -109.5t61.5 -132.5t20.5 -142.5q0 -139 -74 -259.5t-200 -191t-273 -70.5zM618 16 q170 0 271.5 113t101.5 313q0 101 -27.5 190.5t-79.5 159t-134.5 110t-184.5 40.5q-176 0 -273 -112.5t-97 -309.5q0 -139 48.5 -252t146 -182.5t228.5 -69.5z" />
<glyph unicode="&#xf6;" horiz-adv-x="1185" d="M410 1153q-38 0 -60 20.5t-22 57.5t22 57.5t60 20.5t58.5 -20.5t20.5 -57.5t-20.5 -57.5t-58.5 -20.5zM768 1153q-37 0 -58.5 20.5t-21.5 57.5t21.5 57.5t58.5 20.5q38 0 59 -20.5t21 -57.5t-21 -57.5t-59 -20.5zM563 -25q-108 0 -200.5 40.5t-154.5 108.5t-97 158 t-35 189q0 98 33.5 182.5t90 144t129 102t150 63t154.5 20.5q87 0 164 -27.5t133.5 -75t97.5 -109.5t61.5 -132.5t20.5 -142.5q0 -139 -74 -259.5t-200 -191t-273 -70.5zM618 16q170 0 271.5 113t101.5 313q0 101 -27.5 190.5t-79.5 159t-134.5 110t-184.5 40.5 q-176 0 -273 -112.5t-97 -309.5q0 -139 48.5 -252t146 -182.5t228.5 -69.5z" />
<glyph unicode="&#xf7;" horiz-adv-x="815" d="M406 739q-38 0 -60 21t-22 59q0 35 22 55.5t60 20.5q36 0 56.5 -20.5t20.5 -55.5q0 -38 -20 -59t-57 -21zM70 434q-6 0 -8 19t-0.5 38t6.5 19h677q9 0 9 -38t-9 -38h-675zM406 61q-38 0 -60 21t-22 59q0 35 22 55.5t60 20.5q36 0 56.5 -20.5t20.5 -55.5q0 -38 -20 -59 t-57 -21z" />
<glyph unicode="&#xf8;" horiz-adv-x="1185" d="M969 846q67 -70 104 -162t37 -188q0 -139 -74 -259.5t-200 -191t-273 -70.5q-185 0 -315 111l-92 -98q-3 -3 -11 1.5t-13 12t-1 12.5l90 97q-69 69 -107 162.5t-38 197.5q0 98 33.5 182.5t90 144t129 102t150 63t154.5 20.5q183 0 311 -115l90 95q4 4 12 0t13 -10.5 t0 -10.5zM195 520q0 -204 98 -338l586 617q-117 143 -314 143q-176 0 -273 -112.5t-97 -309.5zM618 16q170 0 271.5 113t101.5 313q0 196 -94 330l-584 -616q117 -140 305 -140z" />
<glyph unicode="&#xf9;" horiz-adv-x="1269" d="M381 1227q-17 3 24 24q58 30 84 30q3 0 5 -1q255 -145 352 -190q4 -3 4.5 -8.5t-4 -10.5t-10.5 -2q-237 104 -455 158zM1196 958q4 0 4 -12t-4 -12q-103 0 -134.5 -26.5t-31.5 -114.5v-627q0 -89 29.5 -115t130.5 -26q6 0 6 -12.5t-6 -12.5q-22 0 -65.5 1t-67.5 1 q-21 0 -50 -1t-42 -1q-25 0 -31 6.5t-6 32.5v121q-101 -96 -196.5 -140.5t-199.5 -44.5q-149 0 -243 77.5t-94 207.5v533q0 88 -25 114.5t-111 26.5q-5 0 -5 12t5 12q23 0 87 -3t100 -3q46 0 118.5 3t96.5 3q5 0 5 -12t-5 -12q-102 0 -133 -28.5t-31 -117.5v-454 q0 -307 283 -307q93 0 174.5 38t173.5 128v595q0 90 -29.5 118t-130.5 28q-4 0 -4 12t4 12q26 0 98 -3t117 -3q42 0 114.5 3t98.5 3z" />
<glyph unicode="&#xfa;" horiz-adv-x="1269" d="M436 1069q-6 -3 -10 2t-3.5 10.5t3.5 8.5q60 28 119.5 60t127.5 71t105 59q14 7 79 -24q41 -19 38 -27q-1 -1 -4 -2q-218 -54 -455 -158zM1196 958q4 0 4 -12t-4 -12q-103 0 -134.5 -26.5t-31.5 -114.5v-627q0 -89 29.5 -115t130.5 -26q6 0 6 -12.5t-6 -12.5 q-22 0 -65.5 1t-67.5 1q-21 0 -50 -1t-42 -1q-25 0 -31 6.5t-6 32.5v121q-101 -96 -196.5 -140.5t-199.5 -44.5q-149 0 -243 77.5t-94 207.5v533q0 88 -25 114.5t-111 26.5q-5 0 -5 12t5 12q23 0 87 -3t100 -3q46 0 118.5 3t96.5 3q5 0 5 -12t-5 -12q-102 0 -133 -28.5 t-31 -117.5v-454q0 -307 283 -307q93 0 174.5 38t173.5 128v595q0 90 -29.5 118t-130.5 28q-4 0 -4 12t4 12q26 0 98 -3t117 -3q42 0 114.5 3t98.5 3z" />
<glyph unicode="&#xfb;" horiz-adv-x="1269" d="M414 1077q-2 -1 -6.5 2t-6.5 7t0 6l211 190q9 9 23.5 9t23.5 -9l211 -190q2 -2 0.5 -6.5t-5.5 -7.5t-7 -1l-221 127zM1196 958q4 0 4 -12t-4 -12q-103 0 -134.5 -26.5t-31.5 -114.5v-627q0 -89 29.5 -115t130.5 -26q6 0 6 -12.5t-6 -12.5q-22 0 -65.5 1t-67.5 1 q-21 0 -50 -1t-42 -1q-25 0 -31 6.5t-6 32.5v121q-101 -96 -196.5 -140.5t-199.5 -44.5q-149 0 -243 77.5t-94 207.5v533q0 88 -25 114.5t-111 26.5q-5 0 -5 12t5 12q23 0 87 -3t100 -3q46 0 118.5 3t96.5 3q5 0 5 -12t-5 -12q-102 0 -133 -28.5t-31 -117.5v-454 q0 -307 283 -307q93 0 174.5 38t173.5 128v595q0 90 -29.5 118t-130.5 28q-4 0 -4 12t4 12q26 0 98 -3t117 -3q42 0 114.5 3t98.5 3z" />
<glyph unicode="&#xfc;" horiz-adv-x="1269" d="M455 1153q-37 0 -59.5 21t-22.5 57t22.5 57t59.5 21q38 0 59 -20.5t21 -57.5t-21 -57.5t-59 -20.5zM815 1153q-38 0 -60 20.5t-22 57.5t22 57.5t60 20.5q37 0 57.5 -20.5t20.5 -57.5t-20.5 -57.5t-57.5 -20.5zM1196 958q4 0 4 -12t-4 -12q-103 0 -134.5 -26.5 t-31.5 -114.5v-627q0 -89 29.5 -115t130.5 -26q6 0 6 -12.5t-6 -12.5q-22 0 -65.5 1t-67.5 1q-21 0 -50 -1t-42 -1q-25 0 -31 6.5t-6 32.5v121q-101 -96 -196.5 -140.5t-199.5 -44.5q-149 0 -243 77.5t-94 207.5v533q0 88 -25 114.5t-111 26.5q-5 0 -5 12t5 12q23 0 87 -3 t100 -3q46 0 118.5 3t96.5 3q5 0 5 -12t-5 -12q-102 0 -133 -28.5t-31 -117.5v-454q0 -307 283 -307q93 0 174.5 38t173.5 128v595q0 90 -29.5 118t-130.5 28q-4 0 -4 12t4 12q26 0 98 -3t117 -3q42 0 114.5 3t98.5 3z" />
<glyph unicode="&#xfd;" horiz-adv-x="1046" d="M344 1069q-8 -5 -12 8q-3 10 4 13q59 28 118.5 60t128 71t105.5 59q14 7 79 -24q41 -19 38 -27q-1 -1 -4 -2q-222 -55 -457 -158zM1055 958q5 0 5 -12t-5 -12q-62 0 -101.5 -29t-72.5 -112l-314 -791q-45 -117 -116.5 -208.5t-149.5 -129.5q-6 -2 -22 9t-25 28 q-8 14 -11.5 30.5t-3 27.5t4.5 12q100 17 171 65.5t115 151.5l-378 800q-41 86 -71.5 116t-84.5 30q-6 0 -6 12t6 12q24 0 75 -3t74 -3q46 0 112.5 3t90.5 3q4 0 4 -12t-4 -12q-149 0 -90 -125l330 -680l254 676q26 71 -2.5 100t-124.5 29q-6 0 -6 12t6 12q26 0 81.5 -3 t98.5 -3q35 0 82.5 3t77.5 3z" />
<glyph unicode="&#xfe;" horiz-adv-x="929" d="M520 774q332 0 332 -254q0 -80 -31 -143.5t-80.5 -100.5t-106 -56t-114.5 -19q-61 0 -100 10q-5 1 -6 8t2 13.5t8 5.5q38 -9 74 -9q98 0 166.5 64.5t68.5 185.5q0 129 -71.5 199t-190.5 70q-75 0 -135 -17v-557q0 -93 29 -121t131 -28q6 0 6 -12.5t-6 -12.5 q-27 0 -97.5 2t-113.5 2q-40 0 -112.5 -2t-98.5 -2q-4 0 -4 12.5t4 12.5q101 0 129 25.5t28 115.5v627q0 89 -28.5 115t-128.5 26q-4 0 -4 12t4 12q26 0 98.5 -3t112.5 -3q43 0 113.5 3t97.5 3q6 0 6 -12t-6 -12q-102 0 -131 -28.5t-29 -123.5v-26q102 18 184 18z" />
<glyph unicode="&#xff;" horiz-adv-x="1046" d="M365 1153q-38 0 -60 20.5t-22 57.5t22 57.5t60 20.5q37 0 57 -20.5t20 -57.5t-20 -57.5t-57 -20.5zM723 1153q-37 0 -59.5 21t-22.5 57t22.5 57t59.5 21q38 0 59 -20.5t21 -57.5t-21 -57.5t-59 -20.5zM1055 958q5 0 5 -12t-5 -12q-62 0 -101.5 -29t-72.5 -112l-314 -791 q-45 -117 -116.5 -208.5t-149.5 -129.5q-6 -2 -22 9t-25 28q-8 14 -11.5 30.5t-3 27.5t4.5 12q100 17 171 65.5t115 151.5l-378 800q-41 86 -71.5 116t-84.5 30q-6 0 -6 12t6 12q24 0 75 -3t74 -3q46 0 112.5 3t90.5 3q4 0 4 -12t-4 -12q-149 0 -90 -125l330 -680l254 676 q26 71 -2.5 100t-124.5 29q-6 0 -6 12t6 12q26 0 81.5 -3t98.5 -3q35 0 82.5 3t77.5 3z" />
<glyph unicode="&#x152;" horiz-adv-x="1863" d="M1735 297q0 6 11 6t11 -6q-18 -162 -18 -266q0 -18 -6.5 -24.5t-24.5 -6.5h-598q-45 0 -150 -4t-155 -4q-152 0 -284 48t-224 131.5t-144.5 198.5t-52.5 246q0 150 56.5 277t152 211.5t223 132t269.5 47.5q36 0 142 -2t155 -2h573q21 0 21 -18l4 -248q0 -6 -12.5 -6 t-12.5 6q0 102 -55.5 164.5t-145.5 62.5h-141q-113 0 -144.5 -23.5t-31.5 -105.5v-426h270q94 0 131 31.5t37 109.5q0 5 11.5 5t11.5 -5q0 -44 -1 -92t-1 -69q0 -30 2 -90t2 -95q0 -5 -11.5 -5t-11.5 5q0 92 -39 129t-139 37h-262v-473q0 -86 31.5 -110.5t144.5 -24.5h191 q79 0 138.5 71t76.5 187zM1044 168v919q0 92 -46 131t-177 39q-173 0 -305 -67.5t-208.5 -203.5t-76.5 -324q0 -134 41 -252t115 -205t183 -137t239 -50q133 0 184 28.5t51 121.5z" />
<glyph unicode="&#x153;" horiz-adv-x="1585" d="M1520 111q3 2 7.5 -2t6.5 -9.5t0 -9.5q-71 -61 -142.5 -88t-158.5 -27q-127 0 -218 64t-136 192q-61 -117 -167.5 -186.5t-232.5 -69.5q-123 0 -218.5 69.5t-145 181.5t-49.5 245q0 121 44.5 221.5t115.5 162t155 95t168 33.5q125 0 215 -72.5t137 -191.5 q52 119 153 188.5t220 69.5q114 0 182 -61.5t68 -165.5q0 -24 -5.5 -34.5t-19.5 -10.5l-532 -3q-25 -92 -25 -206q0 -222 91 -340.5t257 -118.5q139 0 230 74zM543 16q130 0 212 115t79 315q-2 133 -45 242.5t-129.5 178.5t-202.5 69q-132 0 -204 -103.5t-69 -289.5 q2 -143 46 -262.5t126.5 -192t186.5 -72.5zM1229 936q-94 0 -158.5 -54.5t-97.5 -156.5l428 10q1 96 -47.5 148.5t-124.5 52.5z" />
<glyph unicode="&#x178;" horiz-adv-x="1243" d="M467 1473q-37 0 -59.5 20.5t-22.5 58.5q0 35 22.5 55.5t59.5 20.5q38 0 59 -20t21 -56q0 -38 -21 -58.5t-59 -20.5zM827 1473q-39 0 -60.5 20.5t-21.5 58.5q0 35 22 55.5t60 20.5q37 0 57.5 -20.5t20.5 -55.5q0 -38 -20.5 -58.5t-57.5 -20.5zM1251 1280q5 0 5 -12.5 t-5 -12.5q-76 0 -147.5 -48t-128.5 -136l-289 -438v-467q0 -38 4 -60.5t13.5 -40t31 -25.5t51.5 -11.5t80 -3.5q6 0 6 -12.5t-6 -12.5q-28 0 -106.5 2t-128.5 2q-48 0 -129 -2t-109 -2q-6 0 -6 12.5t6 12.5q117 0 151 26t34 115v436l-351 508q-54 80 -105.5 112.5 t-125.5 32.5q-6 0 -6 12.5t6 12.5q24 0 75 -3t74 -3q59 0 151 3t122 3q4 0 4 -12.5t-4 -12.5q-85 0 -106.5 -18.5t10.5 -62.5l344 -494l262 397q114 178 -66 178q-4 0 -4 12.5t4 12.5q32 0 103 -3t127 -3q35 0 82 3t77 3z" />
<glyph unicode="&#x2c6;" horiz-adv-x="536" d="M47 924l211 190q9 9 23.5 9t23.5 -9l209 -190q3 -2 2 -6.5t-5 -7.5t-7 -1l-221 127l-224 -127q-2 -1 -6 2t-6 7t0 6z" />
<glyph unicode="&#x2dc;" horiz-adv-x="786" d="M553 1020q25 0 45 9.5t30 18.5t25 27q5 3 12 -2.5t3 -11.5q-53 -69 -88 -93t-72 -24q-46 0 -131.5 24.5t-138.5 24.5q-13 0 -25 -2.5t-19.5 -5t-17 -10t-13 -10.5t-14 -14t-12.5 -13q-3 -2 -7.5 0.5t-6.5 6.5t0 7q33 45 79 82t93 37q32 0 117.5 -25.5t140.5 -25.5z" />
<glyph unicode="&#x2000;" horiz-adv-x="841" />
<glyph unicode="&#x2001;" horiz-adv-x="1683" />
<glyph unicode="&#x2002;" horiz-adv-x="841" />
<glyph unicode="&#x2003;" horiz-adv-x="1683" />
<glyph unicode="&#x2004;" horiz-adv-x="561" />
<glyph unicode="&#x2005;" horiz-adv-x="420" />
<glyph unicode="&#x2006;" horiz-adv-x="280" />
<glyph unicode="&#x2007;" horiz-adv-x="280" />
<glyph unicode="&#x2008;" horiz-adv-x="210" />
<glyph unicode="&#x2009;" horiz-adv-x="336" />
<glyph unicode="&#x200a;" horiz-adv-x="93" />
<glyph unicode="&#x2010;" horiz-adv-x="577" d="M66 418q-11 -4 -10 52q0 32 5 34l439 71q6 1 8 -20t0 -43t-8 -23z" />
<glyph unicode="&#x2011;" horiz-adv-x="577" d="M66 418q-11 -4 -10 52q0 32 5 34l439 71q6 1 8 -20t0 -43t-8 -23z" />
<glyph unicode="&#x2012;" horiz-adv-x="577" d="M66 418q-11 -4 -10 52q0 32 5 34l439 71q6 1 8 -20t0 -43t-8 -23z" />
<glyph unicode="&#x2013;" horiz-adv-x="1054" d="M70 449q-6 0 -8 18.5t-0.5 37.5t6.5 19h917q9 0 9 -37.5t-9 -37.5h-915z" />
<glyph unicode="&#x2014;" horiz-adv-x="1699" d="M70 449q-6 0 -8 18.5t-0.5 37.5t6.5 19h1562q9 0 9 -37.5t-9 -37.5h-1560z" />
<glyph unicode="&#x2018;" horiz-adv-x="339" d="M188 987q36 0 56 -19.5t20 -52.5q0 -71 -84 -71q-61 0 -94 43.5t-33 126.5q0 80 35.5 147t106.5 135q4 3 9 0.5t7 -7t0 -7.5q-100 -106 -100 -242q0 -58 18 -82q19 29 59 29z" />
<glyph unicode="&#x2019;" horiz-adv-x="315" d="M137 1300q59 0 93 -44t34 -126q0 -79 -35.5 -146t-105.5 -136q-5 -2 -10.5 0t-8.5 6.5t0 7.5q103 103 103 242q0 52 -21 84q-16 -31 -59 -31q-35 0 -54.5 19.5t-19.5 52.5q0 71 84 71z" />
<glyph unicode="&#x201a;" horiz-adv-x="315" d="M137 127q59 0 93 -44t34 -126q0 -80 -35.5 -147.5t-105.5 -135.5q-7 -6 -15.5 1.5t-3.5 13.5q103 103 103 241q0 52 -21 84q-15 -30 -59 -30q-35 0 -54.5 19t-19.5 52q0 72 84 72z" />
<glyph unicode="&#x201c;" horiz-adv-x="604" d="M188 987q36 0 56 -19.5t20 -52.5q0 -71 -84 -71q-61 0 -94 43.5t-33 126.5q0 80 35.5 147t106.5 135q4 3 9 0.5t7 -7t0 -7.5q-100 -106 -100 -242q0 -58 18 -82q19 29 59 29zM477 987q35 0 54.5 -19.5t19.5 -52.5q0 -71 -84 -71q-61 0 -94 43.5t-33 126.5q0 79 35.5 146 t105.5 136q9 6 17 -4q5 -6 0 -10q-101 -107 -101 -242q0 -54 19 -84q19 31 61 31z" />
<glyph unicode="&#x201d;" horiz-adv-x="604" d="M137 1300q59 0 93 -44t34 -126q0 -79 -35.5 -146t-105.5 -136q-5 -2 -10.5 0t-8.5 6.5t0 7.5q103 103 103 242q0 52 -21 84q-16 -31 -59 -31q-35 0 -54.5 19.5t-19.5 52.5q0 71 84 71zM424 1300q61 0 94 -43.5t33 -126.5q0 -79 -35.5 -146t-105.5 -136q-9 -6 -17 4 q-5 6 0 10q101 104 101 242q0 52 -21 84q-15 -31 -59 -31q-35 0 -54.5 19.5t-19.5 52.5q0 71 84 71z" />
<glyph unicode="&#x201e;" horiz-adv-x="604" d="M137 127q59 0 93 -44t34 -126q0 -80 -35.5 -147.5t-105.5 -135.5q-7 -6 -15.5 1.5t-3.5 13.5q103 103 103 241q0 52 -21 84q-15 -30 -59 -30q-35 0 -54.5 19t-19.5 52q0 72 84 72zM424 127q61 0 94 -43.5t33 -126.5q0 -80 -35.5 -147.5t-105.5 -135.5q-5 -4 -11 -1.5 t-7.5 7.5t1.5 9q101 104 101 241q0 52 -21 84q-15 -30 -59 -30q-35 0 -54.5 19t-19.5 52q0 72 84 72z" />
<glyph unicode="&#x2022;" horiz-adv-x="616" d="M309 291q-80 0 -135 54.5t-55 133.5q0 77 55.5 132t134.5 55q77 0 132 -55t55 -132q0 -79 -55 -133.5t-132 -54.5z" />
<glyph unicode="&#x2026;" horiz-adv-x="1357" d="M201 -23q-37 0 -59.5 21.5t-22.5 58.5q0 35 22.5 55.5t59.5 20.5q38 0 59 -20t21 -56q0 -37 -21 -58.5t-59 -21.5zM680 -23q-37 0 -59.5 21.5t-22.5 58.5q0 35 22.5 55.5t59.5 20.5q38 0 59 -20t21 -56q0 -37 -21 -58.5t-59 -21.5zM1159 -23q-37 0 -59.5 21.5t-22.5 58.5 q0 35 22.5 55.5t59.5 20.5q38 0 59 -20t21 -56q0 -37 -21 -58.5t-59 -21.5z" />
<glyph unicode="&#x202f;" horiz-adv-x="336" />
<glyph unicode="&#x2039;" horiz-adv-x="622" d="M481 154l-356 307q-9 7 -9 21.5t9 23.5l356 305q2 3 6.5 2t7.5 -5t1 -7l-267 -318l267 -317q2 -7 -7 -13q-6 -3 -8 1z" />
<glyph unicode="&#x203a;" horiz-adv-x="622" d="M141 811l357 -305q9 -9 9 -23.5t-9 -21.5l-357 -307q-4 -7 -11 1q-5 6 -3 11l266 315l-266 320q-2 5 6 11q6 2 8 -1z" />
<glyph unicode="&#x205f;" horiz-adv-x="420" />
<glyph unicode="&#x20ac;" horiz-adv-x="1202" d="M111 518q-15 0 -15 20.5t15 20.5h90q31 186 185.5 305t373.5 119q198 0 301 -68q10 -6 14 -8t10 -7t7.5 -9t1.5 -10.5t-4 -14.5l-76 -172q-2 -2 -8 -2t-11.5 4t-3.5 9q27 69 -11 128.5t-112 91t-157 31.5q-157 0 -267 -112.5t-122 -284.5h634q13 0 6 -20q-9 -21 -24 -21 h-827zM1087 264q1 6 13 4t12 -8l-29 -192q-3 -18 -7 -24t-21 -13q-163 -56 -330 -56q-118 0 -212.5 34.5t-155 93t-97.5 126t-53 144.5h-94q-13 0 -13 20.5t13 20.5h790q14 0 5 -21q-8 -20 -21 -20h-553q17 -76 50.5 -141.5t84 -118.5t121.5 -83t155 -30q129 0 219 65.5 t123 198.5z" />
<glyph unicode="&#x2122;" horiz-adv-x="1464" d="M582 1311q2 5 13 5t11 -5q-8 -172 -8 -187q0 -4 -11.5 -4t-11.5 4q0 86 -20.5 109.5t-89.5 23.5q-54 0 -71 -15.5t-17 -59.5v-379q0 -45 18.5 -59.5t83.5 -14.5q3 0 3 -12t-3 -12q-17 0 -64.5 1t-78.5 1q-27 0 -74 -1t-65 -1q-3 0 -3 12t3 12q64 0 83 14.5t19 59.5v381 q0 45 -16.5 59t-71.5 14q-70 0 -94 -24t-33 -109q0 -4 -12.5 -4t-12.5 4q13 72 13 181q0 6 12 6.5t12 -6.5q0 -23 56 -23q23 0 85.5 -1t98.5 -1q43 0 95 1t69 1q41 0 59.5 5t22.5 24zM1399 729q3 0 3 -12t-3 -12q-15 0 -58 1t-67 1q-31 0 -77.5 -1t-63.5 -1q-3 0 -3 12t3 12 q70 0 90.5 14.5t17.5 59.5l-12 399l-217 -487q-3 -6 -9.5 -6t-9.5 6l-229 454l-12 -338q-3 -54 13 -78t54 -24q3 0 3 -12t-3 -12q-13 0 -42 1t-48 1q-18 0 -49 -1t-45 -1q-3 0 -3 12t3 12q44 0 62 23.5t20 78.5l12 388q-34 36 -82 36q-5 0 -5 12.5t5 12.5q9 0 31 -2t29 -2 q13 0 31.5 2t21.5 2q16 0 29 -12.5t34 -50.5l199 -400l190 430q4 14 16 23.5t23 9.5q1 0 23 -2t39 -2q19 0 44 2t36 2q3 0 3 -12.5t-3 -12.5q-52 0 -74 -16.5t-21 -67.5l13 -368q2 -45 18 -59.5t70 -14.5z" />
<glyph unicode="&#x25fc;" horiz-adv-x="962" d="M0 963h963v-963h-963v963z" />
</font>
</defs>
</svg>
